<?xml version="1.0" standalone="no"?>
<!DOCTYPE svg PUBLIC "-//W3C//DTD SVG 1.1//EN" "http://www.w3.org/Graphics/SVG/1.1/DTD/svg11.dtd" >
<svg xmlns="http://www.w3.org/2000/svg">
<metadata>Generated by IcoMoon</metadata>
<defs>
<font id="WPMU-DEV-Icon" horiz-adv-x="1024">
<font-face units-per-em="1024" ascent="960" descent="-64" />
<missing-glyph horiz-adv-x="1024" />
<glyph unicode="&#x20;" horiz-adv-x="512" d="" />
<glyph unicode="&#x21;" glyph-name="fi-warning-alert" d="M512-64c282.77 0 512 229.23 512 512s-229.23 512-512 512c-282.77 0-512-229.23-512-512s229.23-512 512-512zM459.776 732.843c0 9.426 7.641 17.067 17.067 17.067h68.267c9.426 0 17.067-7.641 17.067-17.067v-330.752c0-9.426-7.641-17.067-17.067-17.067h-67.243c-9.426 0-17.067 7.641-17.067 17.067zM512 310.613c34.109-0.386 61.611-28.126 61.611-62.29 0-0.061 0-0.123 0-0.184 0-34.3-27.813-62.113-62.123-62.113s-62.123 27.813-62.123 62.123c0 0 0 0 0 0 0 34.498 27.966 62.464 62.464 62.464 0.060 0 0.12 0 0.18 0z" />
<glyph unicode="&#x23;" glyph-name="fi-align-justify" d="M972.8 960h-921.6c-28.277 0-51.2-22.923-51.2-51.2v-46.421c0-28.277 22.923-51.2 51.2-51.2h921.6c28.277 0 51.2 22.923 51.2 51.2v46.421c0 28.277-22.923 51.2-51.2 51.2zM972.8 667.136h-921.6c-28.277 0-51.2-22.923-51.2-51.2v-46.421c0-28.277 22.923-51.2 51.2-51.2h921.6c28.277 0 51.2 22.923 51.2 51.2v47.275c0 28.277-22.923 51.2-51.2 51.2zM972.8 375.125h-921.6c-28.277 0-51.2-22.923-51.2-51.2v-46.421c0-28.277 22.923-51.2 51.2-51.2h921.6c28.277 0 51.2 22.923 51.2 51.2v47.275c0 28.277-22.923 51.2-51.2 51.2zM972.8 83.115h-921.6c-28.277 0-51.2-22.923-51.2-51.2v-44.715c0-28.277 22.923-51.2 51.2-51.2h921.6c28.277 0 51.2 22.923 51.2 51.2v45.568c0 28.277-22.923 51.2-51.2 51.2z" />
<glyph unicode="&#x24;" glyph-name="fi-dollar" horiz-adv-x="657" d="M397.483 531.797v162.816c57.244-13.411 106.989-39.912 147.792-76.241l-0.336 0.294c3.046-2.866 7.159-4.627 11.684-4.627 5.721 0 10.784 2.815 13.881 7.135l0.035 0.051 68.267 96.768c2.941 3.182 4.744 7.454 4.744 12.146 0 5.442-2.426 10.318-6.256 13.605-64.084 57.685-146.852 95.709-238.205 104.009l-1.606 93.643c0 10.274-8.329 18.603-18.603 18.603h-73.728c-10.274 0-18.603-8.329-18.603-18.603v-91.136c-159.232-16.555-253.611-117.931-253.611-237.056 0-160.427 132.096-206.507 253.611-235.861v-182.955c-73.541 13.989-137.119 49.613-185.583 99.904l-1.126 0.107c-3.077 3.023-7.3 4.89-11.958 4.89-6.999 0-13.014-4.213-15.647-10.241l-0.043-0.11-67.584-96.939c-3.165-3.101-5.127-7.419-5.127-12.195 0-5.934 3.029-11.161 7.625-14.219l0.063-0.039c64.853-64.853 155.648-112.128 279.552-122.709v-87.552c-0.008-0.204-0.013-0.443-0.013-0.683 0-10.218 8.239-18.512 18.436-18.602h73.736c10.274 0 18.603 8.329 18.603 18.603v0 87.552c173.397 17.067 259.584 119.467 259.584 250.027 0 161.621-136.533 208.896-259.584 238.933zM286.549 558.251c-47.616 16.043-81.749 33.621-81.749 67.925 0 40.107 29.525 68.267 81.408 75.435zM397.483 192v158.037c51.2-17.067 88.405-35.499 88.405-74.24s-28.16-72.021-88.405-83.797z" />
<glyph unicode="&#x25;" glyph-name="fi-align-left" horiz-adv-x="1018" d="M967.339 960h-917.333c-27.617 0-50.005-22.388-50.005-50.005v-46.080c0-0.051 0-0.111 0-0.171 0-27.617 22.388-50.005 50.005-50.005 0 0 0 0 0 0h917.333c27.617 0 50.005 22.388 50.005 50.005v46.251c0 27.617-22.388 50.005-50.005 50.005zM50.005 521.387h670.208c27.617 0 50.005 22.388 50.005 50.005v46.080c0 27.617-22.388 50.005-50.005 50.005h-670.208c-27.617 0-50.005-22.388-50.005-50.005v-46.080c0-27.617 22.388-50.005 50.005-50.005zM867.157 82.261h-817.152c-27.617 0-50.005-22.388-50.005-50.005v-46.080c0-0.051 0-0.111 0-0.171 0-27.617 22.388-50.005 50.005-50.005 0 0 0 0 0 0h817.152c27.617 0 50.005 22.388 50.005 50.005v0 46.080c0 27.617-22.388 50.005-50.005 50.005zM50.005 228.523h570.197c27.617 0 50.005 22.388 50.005 50.005v0 46.080c0 27.617-22.388 50.005-50.005 50.005h-570.197c0 0 0 0 0 0-27.557 0-49.908-22.291-50.005-49.825v-46.089c0-27.617 22.388-50.005 50.005-50.005z" />
<glyph unicode="&#x26;" glyph-name="fi-align-right" horiz-adv-x="1018" d="M967.339 960h-917.333c-27.617 0-50.005-22.388-50.005-50.005v-46.080c0-0.051 0-0.111 0-0.171 0-27.617 22.388-50.005 50.005-50.005 0 0 0 0 0 0h917.333c27.617 0 50.005 22.388 50.005 50.005v46.251c0 27.617-22.388 50.005-50.005 50.005zM967.339 667.477h-670.208c-27.617 0-50.005-22.388-50.005-50.005v-46.080c0-27.617 22.388-50.005 50.005-50.005h670.208c27.617 0 50.005 22.388 50.005 50.005v46.080c0 27.617-22.388 50.005-50.005 50.005zM967.168 82.261h-816.981c-27.617 0-50.005-22.388-50.005-50.005v-46.080c0-0.051 0-0.111 0-0.171 0-27.617 22.388-50.005 50.005-50.005 0 0 0 0 0 0h816.981c27.617 0 50.005 22.388 50.005 50.005v0 46.080c0 27.617-22.388 50.005-50.005 50.005zM1017.515 324.779c0 27.617-22.388 50.005-50.005 50.005h-570.197c-27.617 0-50.005-22.388-50.005-50.005v-46.080c0-27.617 22.388-50.005 50.005-50.005h570.027c27.617 0 50.005 22.388 50.005 50.005v0 46.080z" />
<glyph unicode="&#x27;" glyph-name="fi-quote-2" d="M214.357 82.432c-117.589 0-219.477 101.888-214.357 237.568 8.021 222.037 243.029 386.56 426.667 493.568l54.955-46.933c-131.413-78.336-259.755-199.168-267.264-339.456-5.12-141.141 167.083-206.165 167.083-211.627-2.56-73.045-75.776-133.291-167.083-133.291zM757.589 82.261c-117.419 0-219.307 102.4-214.187 237.568 7.851 221.867 242.859 386.389 425.643 493.568l54.955-46.763c-130.731-78.336-258.56-199.168-266.411-339.456-5.12-141.141 167.083-206.165 167.083-211.627-2.56-73.045-75.776-133.291-167.083-133.291z" />
<glyph unicode="&#x28;" glyph-name="fi-check" d="M1010.005 741.035l-68.267 68.267c-8.68 8.854-20.766 14.343-34.133 14.343s-25.453-5.489-34.126-14.335l-503.304-505.181-221.867 221.867c-8.68 8.854-20.766 14.343-34.133 14.343s-25.453-5.489-34.126-14.335l-68.274-68.274c-8.854-8.68-14.343-20.766-14.343-34.133s5.489-25.453 14.335-34.126l290.824-288.093c17.296-17.297 41.19-27.996 67.584-27.996s50.288 10.699 67.584 27.996l572.245 572.075c8.854 8.68 14.343 20.766 14.343 34.133s-5.489 25.453-14.335 34.126z" />
<glyph unicode="&#x29;" glyph-name="fi-close" horiz-adv-x="774" d="M505.344 448l256 256c8.075 8.115 13.067 19.304 13.067 31.659s-4.992 23.544-13.069 31.66l-55.465 54.612c-8.115 8.075-19.304 13.067-31.659 13.067s-23.544-4.992-31.66-13.069l-255.998-255.998-256 256c-8.042 7.814-19.032 12.632-31.147 12.632s-23.105-4.818-31.157-12.643l-55.115-54.944c-7.974-8.097-12.898-19.217-12.898-31.488s4.924-23.391 12.903-31.494l255.994-255.994-256-256c-8.075-8.115-13.067-19.304-13.067-31.659s4.992-23.544 13.069-31.66l55.124-54.612c8.096-8.116 19.291-13.137 31.659-13.137s23.563 5.021 31.658 13.136l256.001 256.001 256-256c8.115-8.075 19.304-13.067 31.659-13.067s23.544 4.992 31.66 13.069l54.953 54.953c8.075 8.115 13.067 19.304 13.067 31.659s-4.992 23.544-13.069 31.66z" />
<glyph unicode="&#x2a;" glyph-name="fi-asterisk" horiz-adv-x="976" d="M960.341 301.397v0 0.853l-251.904 145.749 253.269 146.091c8.431 5.256 13.959 14.479 13.959 24.993 0 5.373-1.444 10.409-3.964 14.742l0.075-0.14-80.384 139.264c-5.26 8.415-14.473 13.93-24.975 13.93-5.106 0-9.907-1.304-14.089-3.596l0.153 0.077-255.147-145.237v293.376c-0.464 15.61-13.047 28.133-28.637 28.501l-161.827 0.001c-15.552-0.46-28.041-12.949-28.5-28.458l-0.001-0.043v-292.864l-254.123 146.603c-3.946 2.123-8.634 3.37-13.614 3.37-10.762 0-20.164-5.826-25.224-14.495l-0.075-1.163-81.408-139.093c-2.216-4.030-3.519-8.831-3.519-13.937 0-10.502 5.515-19.716 13.807-24.904l0.123-0.072 254.464-146.944-247.979-143.189c-2.348-0.69-4.386-1.561-6.292-2.637-8.651-5.101-14.464-14.526-14.464-25.307 0-5.353 1.433-10.371 3.936-14.693l-0.075 0.141 83.115-144.043c5.422-6.48 13.512-10.571 22.558-10.571 5.392 0 10.444 1.454 14.786 3.99l-0.139-0.075 252.928 145.92v-285.355c0-2.048 0-4.437 0-6.656 0-0.053-0.001-0.116-0.001-0.179 0-16.212 13.143-29.355 29.355-29.355 0.24 0 0.48 0.003 0.719 0.009l165.511-0.001c13.945 3.117 24.262 15.243 24.575 29.833l0.001 0.034v292.011l247.808-142.677c1.6-1.533 3.39-2.889 5.327-4.023 4.333-2.527 9.378-3.976 14.761-3.976 10.73 0 20.115 5.757 25.235 14.35l0.074 0.135 83.115 144.043c1.14 3.009 1.8 6.488 1.8 10.122 0 10.777-5.807 20.197-14.463 25.302z" />
<glyph unicode="&#x2b;" glyph-name="fi-cross-close" d="M1024 448c0 282.77-229.23 512-512 512s-512-229.23-512-512c0-282.77 229.23-512 512-512s512 229.23 512 512zM680.107 235.349c-5.961-5.964-14.198-9.652-23.296-9.652s-17.335 3.689-23.296 9.652l-121.515 121.515-121.515-121.515c-5.961-5.964-14.198-9.652-23.296-9.652s-17.335 3.689-23.296 9.652l-49.835 49.835c-5.964 5.961-9.652 14.198-9.652 23.296s3.689 17.335 9.652 23.296l121.515 121.515-121.515 121.515c-5.964 5.961-9.652 14.198-9.652 23.296s3.689 17.335 9.652 23.296l49.835 49.835c5.961 5.964 14.198 9.652 23.296 9.652s17.335-3.689 23.296-9.652l121.515-120.832 121.515 121.515c5.961 5.964 14.198 9.652 23.296 9.652s17.335-3.689 23.296-9.652l49.835-49.835c5.964-5.961 9.652-14.198 9.652-23.296s-3.689-17.335-9.652-23.296l-121.515-121.515 121.515-121.515c5.964-5.961 9.652-14.198 9.652-23.296s-3.689-17.335-9.652-23.296z" />
<glyph unicode="&#x2c;" glyph-name="fi-clock" d="M512 823.467c207.365 0 375.467-168.102 375.467-375.467s-168.102-375.467-375.467-375.467c-207.365 0-375.467 168.102-375.467 375.467 0.677 207.091 168.375 374.79 375.401 375.466zM512 960c-282.77 0-512-229.23-512-512s229.23-512 512-512c282.77 0 512 229.23 512 512s-229.23 512-512 512zM774.144 638.293l-53.248 53.248c-4.962 4.662-11.661 7.527-19.029 7.527s-14.067-2.864-19.044-7.54l-170.652-170.653-93.696 93.696c-4.946 4.7-11.65 7.591-19.029 7.591s-14.083-2.891-19.041-7.602l-53.065-53.066c-4.951-4.865-8.020-11.631-8.021-19.114 0-0.020 0-0.043 0-0.066 0-7.378 3.001-14.055 7.85-18.877l165.719-165.719c4.849-4.851 11.549-7.851 18.95-7.851 0.058 0 0.116 0 0.174 0.001h1.015c7.274 0.098 13.834 3.079 18.603 7.851l242.347 242.347c4.857 4.876 7.86 11.602 7.86 19.029s-3.003 14.153-7.861 19.030z" />
<glyph unicode="&#x2d;" glyph-name="fi-minus" horiz-adv-x="980" d="M935.083 531.627h-890.368c-24.656-0.097-44.618-20.058-44.715-44.705v-77.833c0.097-24.656 20.058-44.618 44.705-44.715h890.377c24.656 0.097 44.618 20.058 44.715 44.705v77.833c-0.097 24.656-20.058 44.618-44.705 44.715z" />
<glyph unicode="&#x2e;" glyph-name="fi-social-android" horiz-adv-x="867" d="M572.928 866.475l44.032 80.555c0.696 1.23 1.106 2.7 1.106 4.267 0 4.852-3.933 8.786-8.786 8.786-3.286 0-6.15-1.804-7.657-4.475l-44.567-80.94c-36.42 16.441-78.958 26.021-123.733 26.021s-87.314-9.579-125.677-26.801l-42.6 81.505c-1.513 2.739-4.383 4.563-7.68 4.563-4.829 0-8.744-3.915-8.744-8.744 0-1.533 0.394-2.974 1.087-4.226l44.009-80.51c-85.319-42.218-143.333-127.969-145.064-227.44l569.17-0.229c-1.801 99.634-59.797 185.306-143.562 226.824zM303.787 741.888c-13.196 0-23.893 10.697-23.893 23.893s10.697 23.893 23.893 23.893c13.196 0 23.893-10.697 23.893-23.893s-10.697-23.893-23.893-23.893zM563.029 741.888c-13.196 0-23.893 10.697-23.893 23.893s10.697 23.893 23.893 23.893c13.196 0 23.893-10.697 23.893-23.893s-10.697-23.893-23.893-23.893zM866.816 565.589c0 34.922-28.31 63.232-63.232 63.232s-63.232-28.31-63.232-63.232v-264.533c0-34.922 28.31-63.232 63.232-63.232s63.232 28.31 63.232 63.232zM716.8 616.96h-565.931v-409.6c0-37.703 30.564-68.267 68.267-68.267h45.909v-139.947c0-34.875 28.272-63.147 63.147-63.147s63.147 28.272 63.147 63.147v139.947h85.333v-139.947c0-34.922 28.31-63.232 63.232-63.232s63.232 28.31 63.232 63.232v139.947h45.397c12.636 0.101 24.409 3.707 34.419 9.893 20.1 11.527 33.657 33.090 33.847 57.835zM63.147 628.736c-34.836-0.097-63.050-28.311-63.147-63.137v-264.713c0-34.922 28.31-63.232 63.232-63.232s63.232 28.31 63.232 63.232v264.704c0 0 0 0 0 0 0 34.875-28.272 63.147-63.147 63.147-0.060 0-0.12 0-0.18 0z" />
<glyph unicode="&#x2f;" glyph-name="fi-pencil" d="M0-34.987c-0.395-1.591-0.622-3.418-0.622-5.298 0-6.68 2.864-12.692 7.432-16.873 4.214-4.6 10.225-7.464 16.906-7.464 1.88 0 3.707 0.227 5.455 0.655l312.163 95.029 674.133 674.133c4.857 4.876 7.86 11.602 7.86 19.029s-3.003 14.153-7.861 19.030l-208.212 208.895c-4.849 4.847-11.546 7.845-18.944 7.845s-14.095-2.998-18.944-7.845l-674.304-674.816zM88.235 24.917l60.757 199.168 139.093-139.093z" />
<glyph unicode="&#x30;" glyph-name="fi-unlock" horiz-adv-x="808" d="M767.147 528.896h-507.563v93.696c-0.006 0.491-0.009 1.072-0.009 1.653 0 75.487 56.723 137.726 129.872 146.418 4.812 0.483 9.589 0.72 14.422 0.72 72.754 0 132.97-53.685 143.195-123.602 1.489-12.067 10.93-20.741 22.433-20.922h144.061c12.49 0.060 22.592 10.2 22.592 22.698 0 0.601-0.023 1.196-0.069 1.785-13.165 171.030-153.621 305.322-326.153 308.653-186.354 3.077-338.93-153.595-338.93-341.328v-90.453h-29.696c-0.002 0-0.004 0-0.006 0-22.57 0-40.912-18.104-41.295-40.583v-510.329c0-22.81 18.491-41.301 41.301-41.301h725.845c22.81 0 41.301 18.491 41.301 41.301v510.293c0 22.81-18.491 41.301-41.301 41.301z" />
<glyph unicode="&#x31;" glyph-name="fi-user-hero-points-trophy" horiz-adv-x="819" d="M795.648 769.195c0 13.007-10.545 23.552-23.552 23.552h-99.499v85.333s0 1.536 0 2.219c0.006 0.255 0.010 0.554 0.010 0.855 0 19.866-16.011 35.992-35.832 36.18h-480.786c-18.655-1.461-33.244-16.941-33.28-35.836s0-1.54 0-2.222v-85.333h-99.157c-0.001 0-0.002 0-0.002 0-13.007 0-23.552-10.545-23.552-23.552 0-0.12 0.001-0.24 0.003-0.359v0.018-322.048c0.097-12.934 10.604-23.381 23.551-23.381 0 0 0 0 0.001 0h102.4c17.299-112.496 100.743-201.565 208.74-226.959l1.862-157.382h-122.88c-16.966 0-30.72-13.754-30.72-30.72s13.754-30.72 30.72-30.72h368.299c16.966 0 30.72 13.754 30.72 30.72s-13.754 30.72-30.72 30.72h-122.88v157.013c109.86 25.763 193.304 114.833 210.408 225.792l102.595 1.536c0.007 0 0.014 0 0.022 0 12.647 0 22.966 9.969 23.528 22.477l0.002 0.051v322.048zM123.051 486.059h-61.611v245.248h61.611zM734.379 486.059h-61.781v245.248h61.269z" />
<glyph unicode="&#x32;" glyph-name="fi-user-reputation-points" d="M1021.44 565.76c-25.429-116.736-243.712-207.872-509.44-207.872-282.795 0-512 103.253-512 230.741v-140.629c0-127.488 229.205-230.741 512-230.741s512 103.253 512 230.741c-0.030 8.12-0.961 16.008-2.698 23.587zM512 76.629c-282.795 0-512 103.253-512 230.741v-140.629c0-127.488 229.205-230.741 512-230.741s512 103.253 512 230.741v140.629c0-127.488-229.205-230.741-512-230.741zM1024 729.259c0-127.659-229.205-230.059-512-230.059s-512 102.4-512 230.059 229.205 230.741 512 230.741 512-103.253 512-230.741z" />
<glyph unicode="&#x33;" glyph-name="fi-user-star-level-up" d="M512 960c-282.77 0-512-229.23-512-512s229.23-512 512-512c282.77 0 512 229.23 512 512s-229.23 512-512 512zM753.835 103.936l-241.835 168.277-241.835-168.277 85.333 281.941-234.837 178.176 294.571 5.973 96.768 278.357 96.768-278.357 294.571-5.973-234.837-178.005z" />
<glyph unicode="&#x34;" glyph-name="fi-map" d="M846.165 15.872l24.235-11.605 32.597-14.677 25.6 57.003-56.661 25.941zM921.6 803.669l-42.155 24.405h-1.365l-11.264 6.656-31.915-53.931 53.931-31.915zM1006.933 753.152l-45.397 26.624-31.915-53.931 37.205-21.845h57.173v18.944c0.004 0.192 0.006 0.418 0.006 0.644 0 12.57-6.795 23.553-16.912 29.477zM961.365 4.267l-15.36-34.133 46.933-20.992c2.607-1.187 5.653-1.878 8.862-1.878 0.065 0 0.129 0 0.194 0.001h-0.010c12.281 0.557 22.027 10.649 22.027 23.018 0 0.248-0.004 0.495-0.012 0.741l0.001 75.74h-62.635zM961.365 658.261h62.635v-93.867h-62.635v93.867zM961.365 345.429h62.635v-93.867h-62.635v93.867zM961.365 501.76h62.635v-93.867h-62.635v93.867zM961.365 188.928h62.635v-93.867h-62.635v93.867zM798.379 811.691l28.16 47.616-7.339 4.267-20.48 11.093-193.536-102.4-179.712 97.28h-1.365c-1.831 0.635-3.971 1.116-6.184 1.354-1.859 0.565-3.887 0.986-5.977 1.196-2.342-0.206-4.37-0.627-6.312-1.242-2.12-0.166-4.262-0.648-6.293-1.366l-0.834 0.058-179.883-97.28-179.541 97.28c-3.779 1.93-8.243 3.061-12.971 3.061s-9.192-1.131-13.136-3.137c-7.174-3.055-12.354-9.947-12.972-18.113l-0.004-788.552c0.277-7.992 4.945-14.831 11.654-18.206l193.146-105.186h1.195c3.582-1.678 7.778-2.657 12.203-2.657s8.621 0.979 12.383 2.732l0.843-0.076 179.541 97.621 180.565-97.621h1.195c3.601-1.724 7.827-2.731 12.288-2.731 0.034 0 0.074 0 0.114 0 4.423 0 8.61 1.007 12.345 2.805l0.853-0.074 180.395 96.597 4.608-0.853 25.6 57.003-30.549 14.507zM202.411 9.557l-136.533 73.557v702.293l136.533-73.557zM426.667 98.987v700.757l161.451-87.893v-699.733z" />
<glyph unicode="&#x35;" glyph-name="fi-link" d="M937.301 873.301c-53.634 53.723-127.776 86.958-209.68 86.958-76.505 0-146.238-28.998-198.807-76.602l0.252 0.225-149.845-149.845c-25.641-25.678-46.572-56.068-61.381-89.757-31.625-15.29-58.179-32.491-81.399-53.332l0.273 0.241-150.016-149.504c-52.643-53.447-85.149-126.857-85.149-207.859 0-163.629 132.648-296.277 296.277-296.277 81.002 0 154.411 32.506 207.896 85.186l149.808 149.809c20.597 22.947 37.798 49.501 50.462 78.489 36.317 17.445 66.707 38.376 92.389 64.021l149.671 150.013c47.233 52.28 76.134 121.907 76.134 198.285 0 81.784-33.137 155.828-86.717 209.439zM404.651 129.195v0c-27.058-27.058-64.439-43.794-105.728-43.794-82.579 0-149.522 66.943-149.522 149.522 0 41.289 16.736 78.67 43.794 105.728v0l109.227 109.227c27.506-103.779 107.646-183.862 209.402-210.823zM485.888 421.717c-24.767 24.736-40.86 58.152-43.325 95.295 74.658-4.508 134.018-63.81 139.045-138.017-37.57 2.016-70.991 18.113-95.717 42.89zM840.021 564.736l-118.613-118.613c-27.443 103.758-107.527 183.842-209.232 210.822l107.344 109.861 9.216 9.216c26.131 22.897 60.586 36.864 98.304 36.864 82.569 0 149.504-66.935 149.504-149.504 0-37.718-13.967-72.173-37.012-98.476z" />
<glyph unicode="&#x36;" glyph-name="fi-unlink" horiz-adv-x="1025" d="M129.536 783.36l109.397-110.080c5.875-5.875 13.99-9.508 22.955-9.508 17.929 0 32.463 14.534 32.463 32.463 0 8.964-3.634 17.080-9.508 22.955l-108.885 109.568c-5.652 4.91-13.084 7.903-21.215 7.903-17.909 0-32.427-14.518-32.427-32.427 0-8.131 2.993-15.563 7.936-21.254zM318.635 826.88l39.765-150.357c3.88-13.945 16.466-24.008 31.403-24.008 17.972 0 32.541 14.569 32.541 32.541 0 3.036-0.416 5.974-1.193 8.762l-39.711 149.275c-3.878 13.899-16.427 23.926-31.317 23.926-17.927 0-32.459-14.532-32.459-32.459 0-3.036 0.417-5.975 1.196-8.762zM127.829 567.467v0l149.845-40.107c2.559-0.725 5.497-1.142 8.533-1.142 17.927 0 32.459 14.532 32.459 32.459 0 14.891-10.027 27.439-23.697 31.263l-149.562 40.332c-2.559 0.725-5.497 1.142-8.533 1.142-17.927 0-32.459-14.532-32.459-32.459 0-14.891 10.027-27.439 23.697-31.263zM895.147 112.64l-110.080 110.080c-5.875 5.875-13.99 9.508-22.955 9.508-17.929 0-32.463-14.534-32.463-32.463 0-8.964 3.634-17.080 9.508-22.955l109.568-109.568c5.771-5.373 13.536-8.671 22.072-8.671 17.909 0 32.427 14.518 32.427 32.427 0 8.493-3.265 16.224-8.609 22.005zM706.048 69.12l-40.448 150.357c-3.88 13.945-16.466 24.008-31.403 24.008-17.972 0-32.541-14.569-32.541-32.541 0-3.036 0.416-5.974 1.193-8.762l40.052-149.616c3.878-13.899 16.427-23.926 31.317-23.926 17.927 0 32.459 14.532 32.459 32.459 0 3.036-0.417 5.975-1.196 8.762zM896.853 328.533v0l-149.845 40.107c-2.559 0.725-5.497 1.142-8.533 1.142-17.927 0-32.459-14.532-32.459-32.459 0-14.891 10.027-27.439 23.697-31.263l150.074-40.161c2.559-0.725 5.497-1.142 8.533-1.142 17.927 0 32.459 14.532 32.459 32.459 0 14.891-10.027 27.439-23.697 31.263zM492.032 428.203c-40.919 40.905-97.441 66.205-159.872 66.205-58.335 0-111.51-22.088-151.619-58.358l0.196 0.174-114.347-114.347c-38.111-40.385-61.537-94.988-61.537-155.062 0-124.89 101.243-226.133 226.133-226.133 60.074 0 114.677 23.425 155.173 61.64l114.236 114.243c36.095 39.914 58.183 93.089 58.183 151.424 0 62.431-25.3 118.953-66.206 159.873zM417.963 192l-109.397-109.397c-20.662-20.514-49.128-33.193-80.555-33.193-63.151 0-114.345 51.194-114.345 114.345 0 31.724 12.919 60.43 33.783 81.145l109.404 109.404c19.827 17.113 45.846 27.537 74.3 27.537 62.963 0 114.005-51.042 114.005-114.005 0-28.453-10.424-54.472-27.661-74.446zM958.464 893.781c-40.919 40.905-97.441 66.205-159.872 66.205-58.335 0-111.51-22.088-151.619-58.358l0.196 0.174-114.347-114.347c-37.354-40.216-60.276-94.288-60.276-153.712 0-124.89 101.243-226.133 226.133-226.133 59.467 0 113.573 22.954 153.941 60.486l114.207 114.218c36.095 39.914 58.183 93.089 58.183 151.424 0 62.431-25.3 118.953-66.206 159.873zM884.224 658.091l-109.397-109.397c-19.918-17.349-46.131-27.926-74.814-27.926-63.058 0-114.176 51.118-114.176 114.176 0 29.023 10.829 55.518 28.668 75.662l-0.104-0.12 109.397 109.397c19.827 17.113 45.846 27.537 74.3 27.537 62.963 0 114.005-51.042 114.005-114.005 0-28.453-10.424-54.472-27.661-74.446z" />
<glyph unicode="&#x37;" glyph-name="fi-list-number" d="M74.923 690.005l-41.643-41.813 16.043-16.896 22.016 22.357v-95.915h28.16v132.267h-24.576zM51.2 357.376c10.923 0 21.504-5.632 21.504-17.067 0-17.067-15.872-29.696-69.973-69.803v-22.187h99.669v24.576h-53.76c34.133 24.917 52.907 44.544 52.907 67.243 0 26.283-22.187 42.155-51.2 42.155-0.385 0.008-0.839 0.012-1.293 0.012-19.679 0-37.412-8.326-49.871-21.648l16.007-18.641c8.674 9.463 21.091 15.373 34.888 15.373 0.395 0 0.788-0.005 1.18-0.014zM73.557 6.656c15.583 1.746 27.742 14.315 28.837 29.935 0.006 22.118-18.938 35.942-49.829 35.942-0.979 0.053-2.125 0.083-3.277 0.083-18.944 0-35.996-8.101-47.88-21.028l13.952-17.113c8.612 8.446 20.422 13.658 33.449 13.658 0.241 0 0.481-0.002 0.721-0.005 13.617 0 24.54-5.12 24.54-15.701s-9.899-14.165-24.576-14.165c-4.949 0-14.165 0-17.067 0v-25.429h17.067c18.432 0 26.624-4.779 26.624-15.36s-8.875-17.067-24.917-17.067c-0.037 0-0.081 0-0.125 0-14.15 0-26.959 5.74-36.226 15.018l-14.849-18.261c12.162-13.097 29.476-21.266 48.697-21.266 1.301 0 2.593 0.037 3.875 0.111 31.567-0.008 52.047 16.035 52.047 38.904-0.683 16.957-14.020 30.59-30.788 31.738zM981.845 685.909h-773.803c-23.281 0-42.155-18.873-42.155-42.155v-38.912c0-23.281 18.873-42.155 42.155-42.155h773.803c23.281 0 42.155 18.873 42.155 42.155v38.912c0 23.281-18.873 42.155-42.155 42.155zM981.845 377.685h-773.803c-23.281 0-42.155-18.873-42.155-42.155v-38.912c0-23.281 18.873-42.155 42.155-42.155h773.803c0 0 0 0 0 0 23.221 0 42.057 18.776 42.154 41.975v39.092c0 23.281-18.873 42.155-42.155 42.155zM981.845 69.291h-773.803c-23.281 0-42.155-18.873-42.155-42.155v-38.912c0-23.281 18.873-42.155 42.155-42.155h773.803c23.281 0 42.155 18.873 42.155 42.155v38.912c0 23.281-18.873 42.155-42.155 42.155z" />
<glyph unicode="&#x38;" glyph-name="fi-list-bullet" d="M982.528 662.187h-759.125c-22.904 0-41.472-18.568-41.472-41.472v-38.229c0-22.904 18.568-41.472 41.472-41.472h759.125c22.904 0 41.472 18.568 41.472 41.472v38.229c0 22.904-18.568 41.472-41.472 41.472zM982.528 359.595h-759.125c-22.904 0-41.472-18.568-41.472-41.472v-38.229c0-22.904 18.568-41.472 41.472-41.472h759.125c0 0 0 0 0 0 22.904 0 41.472 18.568 41.472 41.472 0 0.060 0 0.12 0 0.18v38.049c0 22.904-18.568 41.472-41.472 41.472zM982.528 57.003h-759.125c-22.904 0-41.472-18.568-41.472-41.472v-38.229c0.097-22.831 18.627-41.301 41.472-41.301 0 0 0 0 0 0h759.125c22.904 0 41.472 18.568 41.472 41.472v38.229c0 22.904-18.568 41.472-41.472 41.472zM60.587 662.187c-33.461 0-60.587-27.126-60.587-60.587s27.126-60.587 60.587-60.587c33.461 0 60.587 27.126 60.587 60.587s-27.126 60.587-60.587 60.587zM60.587 371.712c-33.461-0.001-60.586-27.126-60.586-60.587s27.126-60.587 60.587-60.587c33.461 0 60.587 27.126 60.587 60.587 0 0.12 0 0.24-0.001 0.36 0 33.443-27.125 60.568-60.587 60.568zM60.587 57.173c-33.461 0-60.587-27.126-60.587-60.587s27.126-60.587 60.587-60.587c33.461 0 60.587 27.126 60.587 60.587s-27.126 60.587-60.587 60.587z" />
<glyph unicode="&#x39;" glyph-name="fi-lock" horiz-adv-x="808" d="M767.147 528.896h-29.696v97.963c-8.285 177.386-154.114 318.065-332.8 318.065s-324.515-140.679-332.772-317.323l-0.028-98.705h-30.549c-22.81 0-41.301-18.491-41.301-41.301v-510.293c0-22.81 18.491-41.301 41.301-41.301h725.845c22.81 0 41.301 18.491 41.301 41.301v510.293c0 22.81-18.491 41.301-41.301 41.301zM259.584 626.859c0 79.835 64.719 144.555 144.555 144.555s144.555-64.719 144.555-144.555v-97.963h-289.109z" />
<glyph unicode="&#x3a;" glyph-name="fi-code" horiz-adv-x="1647" d="M7.68 417.792c-4.757 4.731-7.702 11.28-7.702 18.517s2.944 13.787 7.7 18.516l96.257 95.575 290.133 290.133c4.849 4.847 11.546 7.845 18.944 7.845s14.095-2.998 18.944-7.845l76.971-76.8c4.847-4.849 7.845-11.546 7.845-18.944s-2.998-14.095-7.845-18.944l-290.133-290.133 290.133-290.133c4.847-4.849 7.845-11.546 7.845-18.944s-2.998-14.095-7.845-18.944l-76.971-76.8c-4.849-4.847-11.546-7.845-18.944-7.845s-14.095 2.998-18.944 7.845l-290.133 290.133zM1639.595 417.792c4.757 4.731 7.702 11.28 7.702 18.517s-2.944 13.787-7.7 18.516l-96.428 95.575-290.133 290.133c-4.849 4.847-11.546 7.845-18.944 7.845s-14.095-2.998-18.944-7.845l-76.8-76.8c-4.847-4.849-7.845-11.546-7.845-18.944s2.998-14.095 7.845-18.944l290.133-290.133-290.133-290.133c-4.847-4.849-7.845-11.546-7.845-18.944s2.998-14.095 7.845-18.944l76.8-76.8c4.849-4.847 11.546-7.845 18.944-7.845s14.095 2.998 18.944 7.845l290.133 290.133zM694.955-62.464l-102.4 37.376c-10.309 3.77-17.534 13.493-17.534 24.904 0 3.315 0.61 6.487 1.723 9.411l339.395 933.706c3.811 10.23 13.495 17.384 24.85 17.384 3.335 0 6.526-0.617 9.465-1.743l102.219-37.315c10.23-3.811 17.384-13.495 17.384-24.85 0-3.335-0.617-6.526-1.743-9.465l-339.566-933.877c-3.77-10.309-13.493-17.534-24.904-17.534-3.315 0-6.487 0.61-9.411 1.723z" />
<glyph unicode="&#x3b;" glyph-name="fi-quote" d="M121.515 523.776c-0.889 0.044-1.931 0.070-2.978 0.070-7.62 0-14.927-1.339-21.7-3.794 16.254 48.403 48.287 87.687 89.963 112.438l0.934 0.513h0.853c4.36 2.199 7.299 6.642 7.299 11.771 0 4.647-2.412 8.73-6.052 11.067l-0.052 0.031-51.2 31.915c-2.158 1.841-4.98 2.962-8.064 2.962-2.242 0-4.345-0.592-6.163-1.629l0.061 0.032c-73.388-49.549-121.696-131.41-124.407-224.705-0.009-79.423 51.191-124.309 108.193-124.309 53.055 0.286 96.021 43.073 96.597 96.031 0.102 1.586 0.16 3.374 0.16 5.175 0 45.526-36.906 82.432-82.432 82.432-0.116 0-0.232 0-0.348-0.001zM368.981 523.776c-0.889 0.044-1.931 0.070-2.978 0.070-7.62 0-14.927-1.339-21.7-3.794 16.218 48.471 48.258 87.819 89.964 112.608l0.933 0.513c4.36 2.199 7.299 6.642 7.299 11.771 0 4.647-2.412 8.73-6.052 11.067l-0.052 0.031-51.2 31.915c-2.158 1.841-4.98 2.962-8.064 2.962-2.242 0-4.345-0.592-6.163-1.629l0.061 0.032c-73.989-49.575-122.695-131.902-125.261-225.752-0.008-79.4 51.192-124.286 108.194-124.286 52.835 0.572 95.513 43.25 96.085 96.031 0.102 1.586 0.16 3.374 0.16 5.175 0 45.526-36.906 82.432-82.432 82.432-0.116 0-0.232 0-0.348-0.001zM668.501 555.861c-52.835-0.572-95.513-43.25-96.085-96.031-0.102-1.586-0.16-3.374-0.16-5.175 0-45.526 36.906-82.432 82.432-82.432 0.116 0 0.232 0 0.348 0.001 0.864-0.044 1.896-0.068 2.935-0.068 7.629 0 14.945 1.338 21.726 3.793-16.234-48.464-48.27-87.807-89.966-112.609l-0.932-0.513h-0.853c-4.36-2.199-7.299-6.642-7.299-11.771 0-4.647 2.412-8.73 6.052-11.067l0.052-0.031 51.2-31.915c2.183-1.753 4.97-2.835 8.007-2.901 2.206 0.033 4.258 0.598 6.057 1.57l-0.070-0.034c75.435 53.419 125.269 134.997 125.269 226.133 0 79.019-51.2 123.904-108.203 123.904zM915.797 555.861c-53.055-0.286-96.021-43.073-96.597-96.031-0.102-1.586-0.16-3.374-0.16-5.175 0-45.526 36.906-82.432 82.432-82.432 0.116 0 0.232 0 0.348 0.001 0.909-0.048 1.994-0.076 3.085-0.076 7.636 0 14.959 1.341 21.746 3.8-16.144-48.328-47.991-87.592-89.465-112.44l-0.921-0.511h-0.853c-4.36-2.199-7.299-6.642-7.299-11.771 0-4.647 2.412-8.73 6.052-11.067l0.052-0.031 51.2-31.915c2.183-1.753 4.97-2.835 8.007-2.901 2.206 0.033 4.258 0.598 6.057 1.57l-0.070-0.034c74.752 52.395 124.587 133.803 124.587 225.109 0 79.019-51.2 123.904-108.203 123.904z" />
<glyph unicode="&#x3c;" glyph-name="fi-style-type" d="M600.235-4.608c0-0.042 0-0.092 0-0.143 0-15.931-7.276-30.162-18.685-39.552-11.343-10.55-26.453-17.019-43.073-17.137-0.026 0-0.030 0-0.033 0-11.14 0-21.521 3.244-30.253 8.839-9.496 6.164-17 15.152-21.316 25.776l-44.678 99.359h-283.307l-44.373-98.645c-4.412-10.932-11.786-19.9-21.129-26.154-8.647-5.591-18.965-8.837-30.041-8.837-0.251 0-0.501 0.002-0.75 0.005-16.766 0.139-32.034 6.598-43.532 17.111-11.636 9.226-19.065 23.426-19.065 39.361 0 0.006 0 0.013 0 0.019 0.497 9.522 2.9 18.373 6.832 26.334l225.616 474.401c5.839 13.038 15.402 23.536 27.33 30.381 11.701 6.853 25.389 10.801 39.998 10.801s28.297-3.948 40.055-10.835c11.808-6.995 21.526-17.206 27.932-29.427l225.816-475.714c3.869-7.822 6.285-16.984 6.652-26.671zM203.093 171.691h194.731l-96.939 217.429zM980.48 319.317q43.52-43.861 43.52-134.144v-188.928c0.067-1.036 0.105-2.247 0.105-3.466 0-15.424-6.089-29.425-15.995-39.732-10.73-9.683-25.041-15.619-40.738-15.619-1.273 0-2.536 0.039-3.789 0.116-0.367-0.026-1-0.037-1.635-0.037-16.095 0-30.664 6.534-41.2 17.094-10.549 10.354-17.086 24.76-17.086 40.694 0 0.514 0.007 1.026 0.020 1.537l-0.002 5.727c-7.996-20.951-22.288-37.999-40.536-49.25-18.994-11.008-41.281-17.361-65.052-17.361-1.28 0-2.555 0.018-3.826 0.055-0.297-0.009-0.87-0.012-1.443-0.012-26.924 0-52.375 6.304-74.959 17.516-20.968 10.24-38.97 26.053-51.962 45.498-12.607 18.963-19.936 41.675-19.936 66.099 0 0.451 0.003 0.902 0.007 1.353-0.104 1.659-0.163 3.679-0.163 5.713 0 24.818 8.756 47.591 23.347 65.398 19.243 18.899 44.285 32.287 72.24 37.242 38.061 7.624 80.858 11.917 124.658 11.917 5.548 0 11.080-0.069 16.595-0.206l20.858 0.016v15.019c0.19 1.951 0.299 4.218 0.299 6.51 0 16.996-5.972 32.597-15.932 44.819-11.911 9.935-27.533 16.048-44.582 16.048-2.294 0-4.563-0.111-6.8-0.327-37.555-3.095-72.498-12.15-104.744-26.231-7.318-4.335-18.437-7.661-30.26-8.382-0.641-0.028-1.133-0.038-1.627-0.038-11.135 0-21.095 5.030-27.732 12.942-6.891 8.683-11.027 19.729-11.027 31.74 0 0.861 0.021 1.718 0.063 2.569-0.029 0.454-0.044 1.126-0.044 1.802 0 9.556 2.815 18.454 7.661 25.911 6.169 8.019 14.031 14.681 23.056 19.429 21.018 11.107 44.941 19.783 70.137 24.97 26.728 6.037 55.41 9.331 84.859 9.347q90.294 0 133.814-43.861zM880.981 47.616c14.043 15.93 22.615 36.976 22.615 60.024 0 1.398-0.032 2.789-0.094 4.172l0.007 13.969h-14.165c-4.533 0.256-9.837 0.403-15.176 0.403-28.403 0-55.84-4.137-81.741-11.842-13.531-4.937-24.486-19.494-24.486-36.61 0-0.748 0.021-1.491 0.062-2.228-0.023-0.401-0.033-0.993-0.033-1.586 0-13.9 5.691-26.471 14.87-35.51 9.691-9.115 22.769-14.712 37.154-14.712 0.62 0 1.238 0.010 1.853 0.031 0.789-0.038 1.821-0.059 2.857-0.059 22.309 0 42.392 9.534 56.396 24.749zM571.904 537.941l19.797 53.589c19.302 51.135 58.945 90.778 108.798 109.654l55.042 19.882-53.589 19.797c-51.135 19.302-90.778 58.945-109.654 108.798l-20.394 55.554-19.797-53.76c-19.302-51.135-58.945-90.778-108.798-109.654l-55.042-20.735 53.589-19.797c51.122-19.322 90.758-58.958 109.653-108.798zM889.685 445.781l13.483 36.352c13.184 34.97 40.294 62.080 74.388 74.973l37.569 13.773-36.693 13.653c-34.97 13.184-62.080 40.294-74.973 74.388l-13.773 37.569-13.483-36.693c-13.221-35-40.396-62.12-74.557-74.974l-37.571-13.772 36.693-13.483c35-13.221 62.12-40.396 74.974-74.557z" />
<glyph unicode="&#x3d;" glyph-name="fi-plus" horiz-adv-x="980" d="M935.083 531.627h-361.472v361.472c0 0 0 0.001 0 0.001 0 24.669-19.902 44.691-44.526 44.884h-78.013c-24.695 0-44.715-20.019-44.715-44.715v-361.643h-361.643c-24.656-0.097-44.618-20.058-44.715-44.705v-77.833c0.097-24.656 20.058-44.618 44.705-44.715h361.652v-361.472c0-24.695 20.019-44.715 44.715-44.715h77.995c24.656 0.097 44.618 20.058 44.715 44.705v361.481h361.301c24.656 0.097 44.618 20.058 44.715 44.705v77.833c-0.097 24.656-20.058 44.618-44.705 44.715z" />
<glyph unicode="&#x3e;" glyph-name="fi-fast-forward" d="M1024 448c-0.004 9.861-5.897 18.345-14.353 22.125l-0.154 0.061-526.336 304.811c-4.361 4.245-10.324 6.863-16.898 6.863-13.277 0-24.061-10.677-24.233-23.913v-214.203l-400.896 231.253c-4.361 4.245-10.324 6.863-16.898 6.863-13.277 0-24.061-10.677-24.233-23.913v-619.707c0-0.009 0-0.020 0-0.032 0-13.384 10.85-24.235 24.235-24.235 6.743 0 12.842 2.753 17.235 7.197l400.386 231.256v-214.187c0-0.009 0-0.020 0-0.032 0-13.384 10.85-24.235 24.235-24.235 6.743 0 12.842 2.753 17.235 7.197l529.069 305.325c7.014 4.329 11.619 11.973 11.619 20.692 0 0.286-0.005 0.57-0.015 0.853z" />
<glyph unicode="&#x3f;" glyph-name="fi-question" d="M512 960c-282.77 0-512-229.23-512-512s229.23-512 512-512c282.77 0 512 229.23 512 512s-229.23 512-512 512zM552.789 170.667c-11.513-10.623-26.956-17.137-43.921-17.137-1.059 0-2.113 0.025-3.16 0.076-0.751-0.050-1.805-0.076-2.864-0.076-16.965 0-32.408 6.514-43.966 17.177-11.108 11.186-18 26.656-18 43.736s6.893 32.549 18.048 43.779c12.419 10.757 28.738 17.313 46.589 17.313s34.17-6.556 46.681-17.392c11.062-11.151 17.955-26.621 17.955-43.7s-6.893-32.549-18.048-43.779zM676.352 527.531c-14.593-25.881-32.311-48.004-53.036-66.882l-32.638-31.081c-18.585-17.435-31.085-41.162-34.087-67.765l-1.582-24.907h-102.4c-0.104 2.643-0.163 5.746-0.163 8.863 0 28.82 5.063 56.457 14.347 82.072 11.385 24.359 28.247 46.249 49.016 63.625 18.67 15.401 34.551 32.639 47.867 51.794 8.039 12.997 12.482 27.729 12.496 43.498q0 68.271-62.464 68.271c-0.543 0.017-1.181 0.026-1.822 0.026-17.84 0-33.952-7.398-45.435-19.293-11.575-12.699-18.652-29.637-18.652-48.228 0-0.751 0.012-1.5 0.035-2.246l-116.056 0.109c-0.089 1.957-0.14 4.251-0.14 6.558 0 44.597 19.006 84.754 49.36 112.815 32.988 27.163 75.53 43.576 121.907 43.576 3.801 0 7.575-0.11 11.321-0.328q84.816 0.024 131.067-40.936c28.949-26.748 47.016-64.908 47.016-107.288 0-3.024-0.092-6.026-0.273-9.004 0.020 0.268 0.021 0.101 0.021-0.066 0-23.235-5.614-45.158-15.561-64.488z" />
<glyph unicode="&#x40;" glyph-name="fi-at-sign" d="M1024 448c0 0.094 0 0.205 0 0.316 0 282.77-229.23 512-512 512s-512-229.23-512-512c0-282.77 229.23-512 512-512 91.978 0 178.291 24.254 252.894 66.714 5.881 1.727 11.779 9.644 11.779 18.94 0 8.449-4.872 15.759-11.96 19.276l-0.125 0.056-89.088 54.613c-3.681 3.179-8.513 5.115-13.797 5.115-3.297 0-6.417-0.754-9.199-2.099l0.126 0.055c-41.375-17.071-89.413-26.983-139.766-26.983-207.365 0-375.467 168.102-375.467 375.467s168.102 375.467 375.467 375.467c194.738 0 354.849-148.253 373.626-338.052 0.125-138.090-59.609-214.378-106.371-214.378-25.259 0-44.373 17.067-44.373 54.101 0.586 10.629 1.864 20.525 3.809 30.179l56.607 270.536c0.039 0.435 0.062 0.94 0.062 1.451s-0.022 1.016-0.066 1.515c0.005 9.927-8.095 18.026-18.086 18.026h-98.645c-8.664-0.322-15.735-6.748-17.053-15.088l-0.013-0.102-10.069-48.469c-25.259 45.568-76.8 80.384-150.187 80.384-139.264 0-271.36-133.291-271.36-294.229 0-116.395 69.632-201.728 186.197-201.728 71.825 3.066 134.397 40.097 172.402 95.342l1.678-6.424c8.363-45.568 134.315-103.424 206.507-103.424 103.765 0 226.475 70.485 226.475 272.213v0c0 7.68 0 15.36 0 23.040zM602.283 354.475c-26.453-37.205-69.632-79.189-133.291-79.189s-98.475 43.179-98.475 105.643c0 87.723 68.267 174.080 164.523 174.080 0.515 0.009 1.121 0.014 1.73 0.014 42.16 0 78.523-24.816 95.279-60.638z" />
<glyph unicode="&#x41;" glyph-name="fi-paperclip" horiz-adv-x="927" d="M200.533-64c-51.493 1.136-97.52 23.616-129.751 58.91-61.908 61.751-69.588 121.314-65.321 160.396 7.914 52.328 33.104 97.701 69.471 131.097l392.695 392.679c109.568 109.568 182.443 69.461 216.235 35.84 40.789-40.789 68.267-111.275-36.693-215.381l-361.301-361.472-70.315 70.997 361.131 360.448c55.637 55.637 42.837 68.267 36.693 74.752s-19.797 19.797-75.435-35.84l-392.533-392.533c-20.474-18.44-35.098-43.015-40.978-70.817-3.054-26.463 8.893-52.063 36.37-79.711 34.133-34.133 59.904-30.549 68.267-29.355 30.677 7.419 56.812 23.685 76.316 45.914l465.551 465.745c32.166 29.338 56.871 66.308 71.298 108.071 14.547 53.038-2.178 100.313-50.648 148.782-51.2 51.2-133.291 104.448-257.536-19.968l-428.715-429.739c-9.043-9.107-21.57-14.744-35.413-14.744-27.56 0-49.901 22.342-49.901 49.901 0 13.716 5.534 26.14 14.491 35.16l429.224 429.736c133.291 132.779 278.528 140.117 398.677 19.797 93.184-93.184 93.184-183.979 76.629-243.712-19.472-60.91-53.065-112.682-97.048-153.387l-465.811-465.621c-34.177-37.539-79.86-64.066-131.449-74-8.080-1.219-15.674-1.778-23.399-1.778-0.281 0-0.562 0.001-0.843 0.002z" />
<glyph unicode="&#x42;" glyph-name="fi-bold" horiz-adv-x="854" d="M657.067 464.043c96.768 19.968 176.64 107.52 176.64 234.837 0 136.704-99.84 261.12-294.912 261.12h-491.691c-26.015 0-47.104-21.089-47.104-47.104v-929.792c0-26.015 21.089-47.104 47.104-47.104h508.587c196.608 0 297.643 122.88 297.643 277.845 0 127.488-85.333 234.155-196.267 250.197zM217.941 768h273.067c73.728 0 119.467-44.544 119.467-107.52 0-66.048-46.080-107.52-119.467-107.52h-273.067zM500.395 127.829h-282.453v233.472h282.624c84.48 0 130.56-52.224 130.56-116.736 0-73.728-49.152-116.736-130.56-116.736z" />
<glyph unicode="&#x43;" glyph-name="fi-crop" horiz-adv-x="1028" d="M993.343 183.651h-90.771v591.382c0 0.856 0 1.713 0 2.569 0 33.106-26.837 59.943-59.943 59.943h-592.581v88.202c0 18.918-15.336 34.253-34.253 34.253h-57.032c-18.918 0-34.253-15.336-34.253-34.253v0-88.373h-90.257c-18.918 0-34.253-15.336-34.253-34.253v-57.374c0-18.918 15.336-34.253 34.253-34.253h90.771v-590.697c0-0.856 0-1.713 0-2.569 0-33.106 26.837-59.943 59.943-59.943h592.581v-88.716c0-18.918 15.336-34.253 34.253-34.253h57.374c18.918 0 34.253 15.336 34.253 34.253v89.058h89.915c18.918 0 34.253 15.336 34.253 34.253v56.86c0 18.918-15.336 34.253-34.253 34.253zM249.535 183.993v528.527h528.013v-528.87h-527.5z" />
<glyph unicode="&#x44;" glyph-name="fi-photo-picture" d="M1024 747.52c0 29.22-23.687 52.907-52.907 52.907-1.175 0.096-2.544 0.151-3.925 0.151s-2.75-0.055-4.104-0.162l0.179 0.353h-910.336c0 0-0.001 0-0.001 0-29.22 0-52.907-23.687-52.907-52.907 0-0.12 0-0.24 0.001-0.36v0.018-764.245c2.858-26.681 25.25-47.277 52.453-47.277 0.16 0 0.319 0.001 0.478 0.002h909.8v1.195c2.769-0.531 5.955-0.835 9.211-0.835 26.829 0 48.838 20.635 51.022 46.9l1.036 0.186v764.075zM906.069 53.931h-128.683c-0.44 2.001-1.087 3.768-1.935 5.414l0.058-0.123-268.971 466.261c-5.996 12.317-18.418 20.656-32.789 20.656-14.766 0-27.477-8.804-33.167-21.45l-179.292-310.502-43.861 75.947c-3.219 6.282-9.649 10.507-17.067 10.507s-13.848-4.225-17.017-10.399l-65.415-112.577v504.832h788.139zM726.699 623.275c65.98 0 119.467-53.487 119.467-119.467s-53.487-119.467-119.467-119.467c-65.98 0-119.467 53.487-119.467 119.467s53.487 119.467 119.467 119.467z" />
<glyph unicode="&#x45;" glyph-name="fi-refresh" horiz-adv-x="1001" d="M999.595 858.624c-0.539 11.636-10.103 20.865-21.823 20.865-4.598 0-8.864-1.42-12.383-3.846l-92.087-66.512c-92.294 91.448-219.348 147.953-359.598 147.953-282.204 0-510.976-228.772-510.976-510.976s228.772-510.976 510.976-510.976c175.688 0 330.668 88.667 422.63 223.693 3.844 5.786 5.457 10.731 5.457 16.052 0 8.765-4.375 16.507-11.061 21.163l-128.596 90.168c-4.304 2.932-9.618 4.682-15.341 4.682-9.403 0-17.703-4.724-22.657-11.927-55.279-81.86-147.613-134.911-252.338-134.911-167.588 0-303.445 135.857-303.445 303.445s135.857 303.445 303.445 303.445c71.259 0 136.78-24.562 188.56-65.682l-15.131-9.932-85.333-61.611c-5.509-4.016-9.048-10.447-9.048-17.705 0-9.562 6.143-17.688 14.698-20.649l367.257-125.145c2.119-0.76 4.563-1.2 7.111-1.2 4.765 0 9.171 1.538 12.749 4.144 5.281 3.849 8.77 10.008 8.983 16.991z" />
<glyph unicode="&#x46;" glyph-name="fi-animation-video" horiz-adv-x="1263" d="M1174.357 908.8h-1085.099c-49.296 0-89.259-39.962-89.259-89.259v-743.083c0-49.296 39.962-89.259 89.259-89.259h1085.099c49.002 0.387 88.576 40.2 88.576 89.256 0 0.001 0 0.002 0 0.003v743.082c0 0.001 0 0.002 0 0.003 0 49.056-39.574 88.869-88.539 89.256zM252.757 91.307c0-16.401-13.295-29.696-29.696-29.696h-119.467c-16.253 0.193-29.355 13.413-29.355 29.694 0 0.001 0 0.001 0 0.002v73.557c0 0 0 0 0 0 0 16.401 13.295 29.696 29.696 29.696 0.060 0 0.12 0 0.18-0.001h119.457c16.401 0 29.696-13.295 29.696-29.696zM252.757 731.136c0-16.401-13.295-29.696-29.696-29.696h-119.467c-16.401 0-29.696 13.295-29.696 29.696v73.557c0 0.052-0.001 0.114-0.001 0.175 0 16.401 13.295 29.696 29.696 29.696 0.18 0 0.36-0.002 0.539-0.005h119.44c16.179-0.288 29.185-13.471 29.185-29.692 0-0.062 0-0.123-0.001-0.185zM564.907 91.307c0-16.401-13.295-29.696-29.696-29.696h-119.467c-16.401 0-29.696 13.295-29.696 29.696v73.557c0 16.401 13.295 29.696 29.696 29.696h119.467c16.401 0 29.696-13.295 29.696-29.696zM564.907 731.136c0-16.401-13.295-29.696-29.696-29.696h-119.467c-16.401 0-29.696 13.295-29.696 29.696v73.557c0 16.401 13.295 29.696 29.696 29.696h119.467c16.401 0 29.696-13.295 29.696-29.696zM877.056 91.307c0-16.401-13.295-29.696-29.696-29.696h-119.467c-16.401 0-29.696 13.295-29.696 29.696v73.557c0 16.401 13.295 29.696 29.696 29.696h119.467c16.401 0 29.696-13.295 29.696-29.696zM877.056 731.136c0-16.401-13.295-29.696-29.696-29.696h-119.467c-16.401 0-29.696 13.295-29.696 29.696v73.557c0 16.401 13.295 29.696 29.696 29.696h119.467c16.401 0 29.696-13.295 29.696-29.696zM1189.205 91.307c0-16.401-13.295-29.696-29.696-29.696h-118.443c-16.401 0-29.696 13.295-29.696 29.696v73.557c0 16.401 13.295 29.696 29.696 29.696h119.467c16.401 0 29.696-13.295 29.696-29.696zM1189.205 731.136c0-16.401-13.295-29.696-29.696-29.696h-118.443c-16.401 0-29.696 13.295-29.696 29.696v73.557c0 0.051 0 0.111 0 0.171 0 16.401 13.295 29.696 29.696 29.696 0 0 0 0 0 0h119.467c15.954-0.567 28.673-13.638 28.673-29.678 0-0.066 0-0.132-0.001-0.199z" />
<glyph unicode="&#x47;" glyph-name="fi-thumbnails" d="M200.875 960h-165.035c-19.794 0-35.84-16.046-35.84-35.84v-165.035c0-19.794 16.046-35.84 35.84-35.84h165.035c19.794 0 35.84 16.046 35.84 35.84v165.035c0 19.794-16.046 35.84-35.84 35.84zM594.432 960h-164.864c-19.794 0-35.84-16.046-35.84-35.84v-165.035c0-19.794 16.046-35.84 35.84-35.84h165.035c19.794 0 35.84 16.046 35.84 35.84v165.035c0 0 0 0 0 0 0 19.794-16.046 35.84-35.84 35.84-0.060 0-0.12 0-0.18 0zM1024 924.16c0 19.794-16.046 35.84-35.84 35.84h-165.035c-19.794 0-35.84-16.046-35.84-35.84v0-164.864c0-19.794 16.046-35.84 35.84-35.84h165.035c19.794 0 35.84 16.046 35.84 35.84v164.864zM200.875 566.272h-165.035c-19.794 0-35.84-16.046-35.84-35.84v-165.035c0-19.794 16.046-35.84 35.84-35.84h165.035c19.794 0 35.84 16.046 35.84 35.84v165.035c0 19.794-16.046 35.84-35.84 35.84zM594.432 566.272h-164.864c-19.794 0-35.84-16.046-35.84-35.84v-165.035c0-19.794 16.046-35.84 35.84-35.84h165.035c19.794 0 35.84 16.046 35.84 35.84v165.035c0 19.794-16.046 35.84-35.84 35.84zM988.16 566.272h-165.035c-19.794 0-35.84-16.046-35.84-35.84v0-164.864c0-19.794 16.046-35.84 35.84-35.84h165.035c19.794 0 35.84 16.046 35.84 35.84v164.864c0 19.794-16.046 35.84-35.84 35.84zM200.875 172.544h-165.035c-19.794 0-35.84-16.046-35.84-35.84v-164.864c0-19.794 16.046-35.84 35.84-35.84h165.035c19.794 0 35.84 16.046 35.84 35.84v164.864c0 19.794-16.046 35.84-35.84 35.84zM594.432 172.544h-164.864c-19.794 0-35.84-16.046-35.84-35.84v-164.864c0-19.794 16.046-35.84 35.84-35.84h165.035c19.794 0 35.84 16.046 35.84 35.84v164.864c0 19.794-16.046 35.84-35.84 35.84zM988.16 172.544h-165.035c-19.794 0-35.84-16.046-35.84-35.84v-164.864c0-19.794 16.046-35.84 35.84-35.84h165.035c19.794 0 35.84 16.046 35.84 35.84v164.864c0 19.794-16.046 35.84-35.84 35.84z" />
<glyph unicode="&#x48;" glyph-name="fi-help-support" d="M989.867 631.637c-7.098 18.287-24.554 31.016-44.983 31.016-6.033 0-11.807-1.11-17.128-3.137l-14.006-5.18c-44.074 84.36-111.225 151.511-193.089 194.394l2.796 15.526c1.895 4.965 2.992 10.707 2.992 16.706 0 20.352-12.633 37.754-30.485 44.791-54.809 21.677-117.927 34.179-183.964 34.179s-129.155-12.502-187.114-35.269c-14.81-5.894-27.539-23.351-27.539-43.78 0-6.033 1.11-11.807 3.137-17.128l5.18-14.006c-84.36-44.074-151.511-111.225-194.394-193.089l-15.526 2.796c-4.965 1.895-10.707 2.992-16.706 2.992-20.352 0-37.754-12.633-44.791-30.485-21.677-54.809-34.179-117.927-34.179-183.964s12.502-129.155 35.269-187.114c5.894-14.81 23.351-27.539 43.78-27.539 6.033 0 11.807 1.11 17.128 3.137l14.006 5.18c44.083-84.353 111.231-151.501 193.089-194.393l-2.795-15.527c-1.895-4.965-2.992-10.707-2.992-16.706 0-20.352 12.633-37.754 30.485-44.791 54.785-21.656 117.873-34.146 183.878-34.146s129.093 12.49 187.029 35.235c14.81 5.895 27.539 23.351 27.539 43.781 0 6.033-1.11 11.807-3.137 17.128l-5.18 14.006c84.422 44.057 151.629 111.21 194.564 193.091l15.527-2.797c4.965-1.895 10.707-2.992 16.706-2.992 20.352 0 37.754 12.633 44.791 30.485 21.656 54.785 34.146 117.873 34.146 183.878s-12.49 129.093-35.235 187.029zM305.152 365.397l-226.133-83.627c-19.522 49.344-30.84 106.508-30.84 166.315s11.318 116.97 31.93 169.465l10.174-7.246 214.869-79.531c-10.091-24.452-15.95-52.843-15.95-82.603s5.859-58.15 16.487-84.082zM512 911.872c0.020 0 0.044 0 0.068 0 59.758 0 116.869-11.337 169.297-31.979l-7.232-10.176-79.531-214.869c-24.452 10.091-52.843 15.95-82.603 15.95s-58.15-5.859-84.082-16.487l-82.147 226.67c49.292 19.553 106.403 30.891 166.161 30.891 0.024 0 0.048 0 0.072 0zM512-15.701c-0.020 0-0.044 0-0.068 0-59.758 0-116.869 11.337-169.297 31.979l86.763 225.045c24.452-10.091 52.843-15.95 82.603-15.95s58.15 5.859 84.082 16.487l82.147-226.67c-49.301-19.615-106.427-31.011-166.209-31.061zM674.133 513.195c7.926-19.144 12.529-41.376 12.529-64.683s-4.603-45.539-12.949-65.836c-1.787-4.171-3.069-10.354-3.069-16.837 0-20.603 12.946-38.182 31.147-45.047l5.793-2.158c-17.663-26.282-39.596-48.214-65.032-65.341l-2.893 4.925c-6.974 18.532-24.553 31.478-45.156 31.478-6.483 0-12.666-1.282-18.311-3.606-18.824-7.81-41.056-12.413-64.362-12.413s-45.539 4.603-65.836 12.949c-4.13 1.75-10.262 3.009-16.689 3.009-20.58 0-38.144-12.918-45.024-31.088l-2.158-5.792c-26.211 17.68-48.086 39.609-65.169 65.027l4.923 2.898c18.532 6.974 31.478 24.553 31.478 45.156 0 6.483-1.282 12.666-3.606 18.311-7.81 18.824-12.413 41.056-12.413 64.362s4.603 45.539 12.949 65.836c1.75 4.13 3.009 10.262 3.009 16.689 0 20.58-12.918 38.144-31.088 45.024l-5.792 2.158c17.637 26.198 39.509 48.070 64.864 65.171l2.891-4.926c6.974-18.532 24.553-31.478 45.156-31.478 6.483 0 12.666 1.282 18.311 3.606 18.823 7.818 41.054 12.426 64.362 12.426s45.54-4.608 65.834-12.962c4.173-1.787 10.356-3.069 16.839-3.069 20.603 0 38.182 12.946 45.047 31.147l2.158 5.793c26.269-17.621 48.198-39.496 65.343-64.868l-4.927-2.886c-18.501-6.99-31.419-24.554-31.419-45.134 0-6.426 1.26-12.559 3.545-18.163zM944.981 281.771l-11.264 4.096-214.869 79.531c10.091 24.452 15.95 52.843 15.95 82.603s-5.859 58.15-16.487 84.082l226.67 82.147c19.522-49.344 30.84-106.508 30.84-166.315s-11.318-116.97-31.93-169.465z" />
<glyph unicode="&#x49;" glyph-name="fi-info" d="M512 960c-282.77 0-512-229.23-512-512s229.23-512 512-512c282.77 0 512 229.23 512 512s-229.23 512-512 512zM564.224 163.157c0-9.426-7.641-17.067-17.067-17.067h-69.291c-9.426 0-17.067 7.641-17.067 17.067v330.752c0 9.426 7.641 17.067 17.067 17.067h68.267c9.426 0 17.067-7.641 17.067-17.067zM512 585.387c-34.109 0.386-61.611 28.126-61.611 62.29 0 0.061 0 0.123 0 0.184 0 34.3 27.813 62.113 62.123 62.113s62.123-27.813 62.123-62.123c0 0 0 0 0 0 0-34.498-27.966-62.464-62.464-62.464-0.060 0-0.12 0-0.18 0z" />
<glyph unicode="&#x4a;" glyph-name="fi-home" horiz-adv-x="933" d="M919.893 612.352l-439.637 340.48c-5.728 4.501-13.043 7.218-20.992 7.218s-15.264-2.717-21.066-7.274l-425.569-340.766c-7.718-6.297-12.612-15.802-12.629-26.45v-615.427c0-18.851 15.282-34.133 34.133-34.133h252.757c18.851 0 34.133 15.282 34.133 34.133v376.832h291.328v-376.832c0-18.851 15.282-34.133 34.133-34.133h252.757c18.851 0 34.133 15.282 34.133 34.133v615.424c-0.040 10.857-5.142 20.514-13.068 26.739z" />
<glyph unicode="&#x4b;" glyph-name="fi-heart" horiz-adv-x="1066" d="M1064.619 599.723c0 2.901 0 5.973 0 8.875s0 6.485 0 9.899 0 11.093 0 17.067c0 2.389 0 4.608 0 6.827 0 6.997-0.853 13.995-1.707 20.992 0 1.024 0 2.048 0 2.901-7.166 56.63-32.754 106.261-70.47 143.686-52.324 51.4-124.098 83.119-203.279 83.119s-150.955-31.72-203.307-83.146c-39.723-41.089-44.672-54.742-52.864-54.742s-13.483 13.141-53.419 53.76c-51.377 51.152-122.234 82.774-200.476 82.774-0.26 0-0.52 0-0.78-0.001-1.041 0.015-2.318 0.023-3.596 0.023-78.494 0-149.586-31.693-201.177-82.981-37.803-37.152-63.585-86.453-71.016-141.575-0.139-2.283-0.139-3.307-0.139-4.161 0-6.997-1.365-13.824-1.707-20.992q0-3.413 0-6.827c0-5.461 0-11.093 0-17.067s0-6.485 0-9.728 0-6.144 0-9.045c8.14-70.080 31.594-133.365 66.928-188.283l-1.050 1.744c2.389-3.755 4.096-7.68 6.656-11.435 96.256-149.845 375.637-397.141 459.435-397.141v0c83.968 0 363.179 247.979 459.776 397.824 2.389 3.755 4.267 7.68 6.656 11.435v0c34.217 53.55 57.47 117.289 65.018 185.758z" />
<glyph unicode="&#x4c;" glyph-name="fi-lightbulb" horiz-adv-x="693" d="M692.907 613.547c0 0.114 0 0.249 0 0.384 0 191.341-155.112 346.453-346.453 346.453s-346.453-155.112-346.453-346.453c0-103.281 45.193-196.007 116.883-259.48 16.89-14.701 27.326-35.713 27.501-59.166v-44.063c0-0.051 0-0.111 0-0.171 0-23.187 18.797-41.984 41.984-41.984 0 0 0 0 0 0h320.171c23.187 0 41.984 18.797 41.984 41.984v44.203c0.203 23.426 10.635 44.375 27.040 58.628 72.14 63.639 117.344 156.172 117.344 259.263 0 0.142 0 0.283 0 0.425zM530.432 74.581h-367.957c-9.991 0-18.091 8.099-18.091 18.091v39.424c0 9.991 8.099 18.091 18.091 18.091h367.957c9.991 0 18.091-8.099 18.091-18.091v-39.424c0-9.991-8.099-18.091-18.091-18.091zM465.579-64h-238.933c-9.991 0-18.091 8.099-18.091 18.091v39.253c0 9.991 8.099 18.091 18.091 18.091h238.933c9.991 0 18.091-8.099 18.091-18.091v-39.424c-0.097-9.918-8.159-17.92-18.090-17.92 0 0-0.001 0-0.001 0z" />
<glyph unicode="&#x4d;" glyph-name="fi-arrow-location" horiz-adv-x="1032" d="M430.080-59.904l-429.227 1005.397c-0.524 1.201-0.829 2.601-0.829 4.072 0 5.75 4.661 10.411 10.411 10.411 1.471 0 2.871-0.305 4.139-0.855l1013.693-434.833c2.667-0.908 4.552-3.391 4.552-6.315s-1.885-5.406-4.505-6.301l-367.834-112.654c-47.538-14.921-84.376-51.253-99.702-97.401l-118.069-361.010c-0.908-2.667-3.391-4.552-6.315-4.552s-5.406 1.885-6.301 4.505z" />
<glyph unicode="&#x4e;" glyph-name="fi-arrow-pointer-cursor" horiz-adv-x="641" d="M208.213 248.832l-170.667-128.171c-3.885-2.982-8.815-4.779-14.165-4.779-12.913 0-23.381 10.468-23.381 23.381 0 0 0 0.001 0 0.001v797.355c-0.004 0.167-0.007 0.364-0.007 0.562 0 12.913 10.468 23.381 23.381 23.381 6.471 0 12.327-2.628 16.561-6.876l593.921-599.041c4.145-4.216 6.704-10.003 6.704-16.387 0-12.913-10.468-23.381-23.381-23.381-0.137 0-0.273 0.001-0.409 0.004h-208.193l129.536-276.48c1.385-2.898 2.195-6.3 2.195-9.89 0-9.31-5.442-17.349-13.318-21.111l-147.256-68.327c-2.898-1.385-6.3-2.195-9.89-2.195-9.31 0-17.349 5.442-21.111 13.318z" />
<glyph unicode="&#x4f;" glyph-name="fi-plugin-2" horiz-adv-x="645" d="M568.491 655.701l2.731 274.603c0.001 0.101 0.002 0.221 0.002 0.341 0 16.212-13.143 29.355-29.355 29.355-0.001 0-0.001 0-0.002 0h-87.040c-16.055-0.093-29.068-12.987-29.354-28.986l-2.731-275.312h-200.021l2.731 274.432c0.003 0.152 0.004 0.332 0.004 0.512 0 16.154-13.048 29.26-29.179 29.354h-87.049c-0.001 0-0.003 0-0.004 0-16.126 0-29.233-12.929-29.521-28.986l-2.731-275.312h-76.971v-168.96c0.699-144.669 96.73-266.722 228.462-306.607l5.010-214.268c0.049-8.233 3.581-15.631 9.196-20.803 5.313-5.089 12.508-8.21 20.432-8.21 0.024 0 0.048 0 0.072 0h-0.004c29.355 0 45.568 0.853 61.781 1.536s31.573 1.365 59.904 1.536c0.001 0 0.001 0 0.002 0 16.281 0 29.501 13.101 29.694 29.336v209.597c133.939 40.538 229.895 162.573 230.57 307.121v169.039z" />
<glyph unicode="&#x50;" glyph-name="fi-plugins" d="M552.789 654.336h-122.539v-200.021h119.467c2.567-0.199 5.558-0.312 8.576-0.312 27.747 0 53.258 9.568 73.416 25.586 17.148 16.574 27.949 40.068 27.949 66.085 0 2.143-0.073 4.27-0.218 6.376 0.091 1.159 0.133 2.849 0.133 4.549 0 26.935-10.721 51.366-28.129 69.259-19.352 17.702-45.265 28.562-73.714 28.562-1.498 0-2.988-0.030-4.471-0.090zM512 960c-282.77 0-512-229.23-512-512s229.23-512 512-512c282.77 0 512 229.23 512 512s-229.23 512-512 512zM703.829 420.864q-55.296-46.933-154.965-46.933h-118.613v-212.651h-99.669v573.44h219.307q96.256 0 152.747-50.005c34.806-30.999 56.621-75.939 56.621-125.974 0-2.333-0.047-4.655-0.141-6.965 0.161-2.289 0.247-5.355 0.247-8.44 0-48.739-21.416-92.476-55.351-122.315z" />
<glyph unicode="&#x51;" glyph-name="fi-trash" horiz-adv-x="845" d="M770.389 671.744h-695.808c0 0 0 0 0 0-17.626 0-31.915-14.289-31.915-31.915 0-0.060 0-0.12 0-0.18v-671.564c0-0.051 0-0.111 0-0.171 0-17.626 14.289-31.915 31.915-31.915 0 0 0 0 0 0h695.808c17.553 0.097 31.744 14.348 31.744 31.914 0 0.060 0 0.12 0 0.18v671.735c0 17.626-14.289 31.915-31.915 31.915zM813.056 887.637h-264.021v40.277c0 0.051 0 0.111 0 0.171 0 17.626-14.289 31.915-31.915 31.915 0 0 0 0 0 0h-189.269c0 0 0 0 0 0-17.626 0-31.915-14.289-31.915-31.915 0-0.060 0-0.12 0-0.18v-40.268h-264.021c-17.626 0-31.915-14.289-31.915-31.915v-93.355c0-17.626 14.289-31.915 31.915-31.915h781.141c17.626 0 31.915 14.289 31.915 31.915v93.355c0 17.626-14.289 31.915-31.915 31.915z" />
<glyph unicode="&#x52;" glyph-name="fi-arrow-return-back" d="M957.099 501.248h-760.32l198.144 197.973c3.329 3.122 5.403 7.548 5.403 12.459s-2.074 9.336-5.393 12.45l-51.209 51.209c-3.122 3.329-7.548 5.403-12.459 5.403s-9.336-2.074-12.45-5.393l-250.547-251.913-63.317-63.317c-3.118-3.093-5.048-7.38-5.048-12.117s1.93-9.024 5.047-12.116l314.54-314.54c3.122-3.329 7.548-5.403 12.459-5.403s9.336 2.074 12.45 5.393l51.209 51.209c3.329 3.122 5.403 7.548 5.403 12.459s-2.074 9.336-5.393 12.45l-198.836 197.299h703.829c9.426 0 17.067-7.641 17.067-17.067v-140.288c0-3.413 6.485-6.315 14.507-6.315h77.141c8.021 0 14.507 2.901 14.507 6.315v196.779c0 36.949-29.953 66.901-66.901 66.901z" />
<glyph unicode="&#x53;" glyph-name="fi-star" d="M1022.635 572.928c-3.255 9.924-12.398 16.98-23.2 17.067h-346.293l-117.931 333.312c-3.443 9.687-12.531 16.499-23.211 16.499s-19.767-6.811-23.157-16.327l-117.984-334.166h-346.283c-13.554-0.025-24.532-11.018-24.532-24.576 0-7.796 3.63-14.744 9.292-19.247l270.386-214.055-121.003-342.357c-0.92-2.477-1.453-5.339-1.453-8.325 0-13.573 11.003-24.576 24.576-24.576 4.699 0 9.091 1.319 12.824 3.607l317.333 190.403 317.44-190.293c3.626-2.227 8.017-3.546 12.717-3.546 13.573 0 24.576 11.003 24.576 24.576 0 2.986-0.533 5.848-1.508 8.495l-120.948 342.016 270.336 214.016c5.646 4.542 9.228 11.45 9.228 19.194 0 2.907-0.505 5.696-1.431 8.284z" />
<glyph unicode="&#x54;" glyph-name="fi-themes" d="M512 960c-282.77 0-512-229.23-512-512s229.23-512 512-512c282.77 0 512 229.23 512 512s-229.23 512-512 512zM739.499 654.507h-178.859v-493.227h-98.816v493.056h-177.323v80.384h454.997z" />
<glyph unicode="&#x55;" glyph-name="fi-underline" horiz-adv-x="990" d="M941.397 33.451h-894.293c-26.816 0-48.555-21.739-48.555-48.555s21.739-48.555 48.555-48.555h894.293c26.91 0 48.725 21.815 48.725 48.725s-21.815 48.725-48.725 48.725zM494.933 89.6c256.853 0 382.805 146.944 382.805 365.568v457.387c-0.097 26.164-21.281 47.349-47.436 47.445h-62.303c-26.164-0.097-47.349-21.281-47.445-47.436s0-1.204 0-1.887v-452.267c-0.341-140.288-78.507-232.277-225.621-232.277s-225.109 91.989-225.109 232.277v452.267s0 1.195 0 1.707c0 0 0 0.001 0 0.001 0 26.298-21.318 47.616-47.616 47.616-0.12 0-0.24 0-0.36-0.001h-62.104c-26.164-0.097-47.349-21.281-47.445-47.436v-458.079c0-218.453 126.635-364.885 382.635-364.885z" />
<glyph unicode="&#x56;" glyph-name="fi-infinity" horiz-adv-x="1365" d="M1085.611 748.373c-141.995 0-297.472-78.507-402.944-198.997-105.472 120.491-261.12 198.997-402.944 198.997-135.339 0-279.723-78.507-279.723-300.373s144.384-300.373 279.723-300.373c141.995 0 297.472 78.507 402.944 198.997 105.472-120.491 260.949-198.997 402.944-198.997 135.339 0 279.723 78.507 279.723 300.373s-144.384 300.373-279.723 300.373zM279.723 267.776c-103.253 0-155.648 60.757-155.648 180.224s52.395 180.224 155.648 180.224c114.176 0 246.613-74.069 328.021-180.224-81.408-106.155-214.016-180.224-328.021-180.224zM1085.611 267.776c-114.176 0-246.784 74.069-328.192 180.224 81.408 106.155 214.016 180.224 328.192 180.224 103.253 0 155.477-60.757 155.477-180.224s-52.224-180.224-155.477-180.224z" />
<glyph unicode="&#x57;" glyph-name="fi-web-globe-world" d="M512 960c-282.77 0-512-229.23-512-512s229.23-512 512-512c282.77 0 512 229.23 512 512s-229.23 512-512 512zM925.696 495.275h-125.611c-9.899 146.603-64.853 273.067-143.019 343.040 144.888-55.283 249.655-184.947 268.267-341.061zM460.8 789.333v-293.547h-141.141c11.093 146.773 73.045 256 140.629 293.547zM460.288 400.213v-293.547c-68.267 37.888-129.195 146.261-140.629 292.523zM555.861 103.595v296.107h148.309c-11.776-151.723-77.824-262.827-148.309-296.619zM555.861 495.616v297.131c70.656-34.133 136.533-145.237 148.309-297.472zM366.763 838.315c-78.165-70.656-133.12-196.267-143.019-343.040h-125.44c18.804 158.093 123.57 287.757 265.597 342.078zM98.475 399.701h125.44c10.069-146.261 64.853-271.531 142.848-341.333-144.368 55.070-248.893 183.969-268.084 339.305zM657.237 58.368c77.995 70.485 132.949 195.755 142.848 341.333h125.44c-19.395-157.364-123.919-286.263-265.426-340.372z" />
<glyph unicode="&#x58;" glyph-name="fi-alert" d="M1020.245-2.048v0l-1.707 2.901c-0.944 1.815-1.85 3.322-2.836 4.771l-465.132 806.066c-7.59 13.891-22.097 23.155-38.768 23.155-18.005 0-33.485-10.806-40.31-26.287l-0.111-0.282-461.653-799.915c-6.060-7.461-9.73-17.076-9.73-27.548 0-0.155 0.001-0.31 0.002-0.465 0-24.483 19.866-44.35 44.373-44.35h935.253c0.040 0 0.088 0 0.136 0 24.412 0 44.203 19.79 44.203 44.203 0 6.422-1.369 12.524-3.832 18.030zM512 19.627c-0.203-0.002-0.443-0.004-0.683-0.004-35.005 0-63.393 28.329-63.488 63.312-0.054 0.995-0.085 2.148-0.085 3.309 0 35.252 28.577 63.829 63.829 63.829s63.829-28.577 63.829-63.829c0-1.161-0.031-2.314-0.092-3.459 0.007-34.809-28.341-63.158-63.311-63.158zM575.317 579.755v-349.355c0-14.233-11.538-25.771-25.771-25.771h-75.093c-0.102-0.001-0.222-0.002-0.342-0.002-14.268 0-25.845 11.519-25.941 25.764v348.51s0 0 0 1.024c0.055 13.529 10.527 24.594 23.807 25.595l77.74 0.005c0.052 0 0.114 0.001 0.176 0.001 14.053 0 25.479-11.248 25.765-25.233v-0.027z" />
<glyph unicode="&#x59;" glyph-name="fi-paypal" horiz-adv-x="1009" d="M233.301 113.664l44.885 193.195c7.59 27.926 32.257 48.3 61.84 49.32l37.318 0.003c159.232 0 282.624 32.768 371.371 97.963 80.655 55.619 132.844 147.504 132.844 251.578 0 2.215-0.024 4.425-0.071 6.628 0.144 2.73 0.222 6.316 0.222 9.922 0 39.028-9.219 75.903-25.599 108.566-16.178 30.55-40.557 56.516-70.202 74.749-33.285 20.163-71.204 34.707-111.679 41.837-47.247 8.11-99.386 12.581-152.57 12.581-1.056 0-2.113-0.002-3.168-0.005h-271.537c-29.765-1.458-54.414-21.771-62.345-49.182l-183.415-797.154c-1.003-3.287-1.581-7.066-1.581-10.979 0-21.491 17.421-38.912 38.912-38.912 0.736 0 1.468 0.020 2.194 0.061l129.947-0.004c29.943 0.993 54.806 21.619 62.188 49.37zM339.456 576l39.253 168.96c7.495 28.082 32.294 48.584 62.023 49.491l42.767 0.002c49.835 0 87.552-8.533 113.152-25.429 22.931-15.537 37.803-41.467 37.803-70.871 0-2.327-0.093-4.632-0.276-6.912 0.167-2.112 0.252-4.932 0.252-7.772 0-46.969-23.083-88.547-58.523-114.010-39.672-28.958-94.115-43.294-164.6-43.294h-31.915c-0.662-0.040-1.436-0.063-2.216-0.063-21.491 0-38.912 17.421-38.912 38.912 0 3.853 0.56 7.576 1.603 11.090zM984.576 701.781c-16.747 31.847-41.005 57.746-70.504 75.978l-8.003 4.576 2.731-4.949c15.743-31.277 24.962-68.164 24.962-107.204 0-3.593-0.078-7.167-0.233-10.721 0.059-1.368 0.083-3.577 0.083-5.792 0-104.074-52.189-195.959-131.823-250.912-89.767-65.861-213.33-98.458-372.391-98.629h-36.864c-29.787-1.026-54.528-21.474-62.015-49.027l-45.164-193.49c-7.487-28.216-32.35-48.841-62.185-49.832l-88.173-0.003-5.973-25.941c-1.005-3.29-1.584-7.072-1.584-10.989 0-21.491 17.421-38.912 38.912-38.912 0.797 0 1.589 0.024 2.375 0.071l129.94-0.005c29.943 0.993 54.806 21.619 62.188 49.37l44.99 193.83c7.639 27.895 32.278 48.242 61.834 49.319l37.494 0.003c159.232 0 282.624 32.768 371.371 97.963 80.656 55.582 132.849 147.442 132.849 251.492 0 2.305-0.026 4.604-0.077 6.897 0.145 2.729 0.224 6.328 0.224 9.946 0 39.016-9.22 75.879-25.6 108.528z" />
<glyph unicode="&#x5a;" glyph-name="fi-wand-magic" horiz-adv-x="868" d="M658.432 470.187l106.325 106.325c4.546 4.541 7.358 10.817 7.358 17.749s-2.812 13.208-7.357 17.749l-88.576 88.747c-4.541 4.546-10.817 7.358-17.749 7.358s-13.208-2.812-17.749-7.357l-106.496-106.326zM480.939 541.184l-469.845-470.016c-6.839-6.802-11.072-16.219-11.072-26.624s4.233-19.822 11.070-26.622l70.828-70.828c6.821-6.798 16.232-11.001 26.624-11.001s19.803 4.203 26.625 11.002l470.015 469.844zM250.709 815.616l14.848-40.277c14.495-38.364 44.239-68.107 81.64-82.283l41.24-15.168-40.277-14.848c-38.364-14.495-68.107-44.239-82.283-81.64l-15.168-41.24-14.848 40.277c-14.423 38.302-44.036 68.028-81.302 82.28l-41.237 15.17 40.277 14.848c38.364 14.495 68.107 44.239 82.283 81.64zM551.765 960l10.24-27.477c9.877-26.259 30.232-46.613 55.834-56.273l28.134-10.457-27.477-10.24c-26.246-9.897-46.593-30.245-56.272-55.833l-10.458-27.452-10.24 27.477c-9.897 26.246-30.245 46.593-55.833 56.272l-28.135 10.458 27.477 10.24c26.259 9.877 46.613 30.232 56.273 55.834zM796.331 311.467l7.851-20.992c7.584-20.049 23.129-35.594 42.675-43.011l21.666-8.018-21.163-7.851c-20.049-7.584-35.594-23.129-43.011-42.675l-8.018-21.495-7.851 20.992c-7.584 20.049-23.129 35.594-42.675 43.011l-21.666 8.018 21.163 7.851c20.049 7.584 35.594 23.129 43.011 42.675z" />
<glyph unicode="&#x5b;" glyph-name="fi-tablet-landscape" d="M1024 644.096c0 20.171-16.352 36.523-36.523 36.523h-950.955c-20.171 0-36.523-16.352-36.523-36.523s0-1.024 0-1.536v0-672.427c1.203-19.099 16.988-34.133 36.284-34.133 0.024 0 0.048 0 0.071 0h951.122c0.071 0 0.155-0.001 0.238-0.001 19.296 0 35.081 15.035 36.279 34.029l0.005 0.105v672.427s0 1.024 0 1.536zM904.533 55.467h-785.067v505.344h785.067v-505.344zM964.437 277.333c-16.495 0-29.867 13.372-29.867 29.867s13.372 29.867 29.867 29.867c16.495 0 29.867-13.372 29.867-29.867 0-0.001 0-0.001 0-0.002 0-16.495-13.372-29.867-29.867-29.867-0.12 0-0.24 0.001-0.36 0.002z" />
<glyph unicode="&#x5c;" glyph-name="fi-monitor" d="M961.195 760.491h-898.389c-34.686 0-62.805-28.119-62.805-62.805v-548.011c0-34.686 28.119-62.805 62.805-62.805h338.261v-95.232h-104.789c-9.897 0-17.92-8.023-17.92-17.92v-19.456c-0.002-0.102-0.003-0.221-0.003-0.341 0-9.897 8.023-17.92 17.92-17.92 0.001 0 0.002 0 0.003 0h422.229c9.897 0 17.92 8.023 17.92 17.92v19.627c0 9.897-8.023 17.92-17.92 17.92h-95.573v95.232h338.261c0 0 0 0 0 0 34.686 0 62.805 28.119 62.805 62.805 0 0.060 0 0.12 0 0.18v548.001c0 34.686-28.119 62.805-62.805 62.805zM111.957 649.557h800.085v-451.755h-800.085z" />
<glyph unicode="&#x5d;" glyph-name="fi-tablet-portrait" horiz-adv-x="745" d="M708.096 960h-673.963c-19.099-1.203-34.134-16.988-34.134-36.284 0-0.084 0-0.168 0.001-0.251v-950.942c0-0.071-0.001-0.155-0.001-0.238 0-19.296 15.035-35.081 34.029-36.279l674.068-0.005c20.171 0 36.523 16.352 36.523 36.523v950.955c0 20.171-16.352 36.523-36.523 36.523zM370.859-33.963c-16.495 0-29.867 13.372-29.867 29.867s13.372 29.867 29.867 29.867c16.495 0 29.867-13.372 29.867-29.867s-13.372-29.867-29.867-29.867zM624.811 55.467h-505.344v785.067h505.173v-785.067z" />
<glyph unicode="&#x5e;" glyph-name="fi-align-center" horiz-adv-x="1018" d="M50.005-64h917.333c27.617 0 50.005 22.388 50.005 50.005v46.080c0 27.617-22.388 50.005-50.005 50.005h-917.333c0 0 0 0 0 0-27.557 0-49.908-22.291-50.005-49.825v-46.089c0-0.051 0-0.111 0-0.171 0-27.617 22.388-50.005 50.005-50.005 0 0 0 0 0 0zM123.563 324.779v0-46.080c0-27.617 22.388-50.005 50.005-50.005h670.208c27.617 0 50.005 22.388 50.005 50.005v46.080c0 27.617-22.388 50.005-50.005 50.005h-670.208c-27.617 0-50.005-22.388-50.005-50.005zM100.352 813.739h816.981c27.617 0 50.005 22.388 50.005 50.005v46.251c0 27.617-22.388 50.005-50.005 50.005h-816.981c-0.051 0-0.111 0-0.171 0-27.617 0-50.005-22.388-50.005-50.005 0 0 0 0 0 0v0-46.080c0-0.051 0-0.111 0-0.171 0-27.617 22.388-50.005 50.005-50.005 0.060 0 0.12 0 0.18 0zM173.568 571.221c0-27.617 22.388-50.005 50.005-50.005h570.197c27.617 0 50.005 22.388 50.005 50.005v46.080c0 27.617-22.388 50.005-50.005 50.005h-570.027c-27.617 0-50.005-22.388-50.005-50.005v0-46.080z" />
<glyph unicode="&#x5f;" glyph-name="fi-check-tick" d="M873.984 809.984c-92.651 92.636-220.639 149.931-362.008 149.931-282.77 0-512-229.23-512-512s229.23-512 512-512c141.37 0 269.358 57.295 362.009 149.932 92.671 92.656 149.991 220.668 149.991 362.068s-57.32 269.412-149.991 362.068zM724.651 535.040l-251.392-251.392c-10.683-10.67-25.435-17.268-41.728-17.268s-31.045 6.599-41.729 17.269l-126.805 126.805c-6.868 6.884-11.116 16.386-11.116 26.88s4.247 19.996 11.116 26.881l29.695 29.695c6.893 6.919 16.429 11.201 26.965 11.201s20.073-4.282 26.964-11.2l85.335-85.335 209.067 210.091c6.884 6.868 16.386 11.116 26.88 11.116s19.996-4.247 26.881-11.116l29.695-29.695c6.868-6.884 11.116-16.386 11.116-26.88s-4.247-19.996-11.116-26.881z" />
<glyph unicode="&#x60;" glyph-name="fi-list" d="M0 759.296v0c0 0 0-0.001 0-0.002 0-19.674 15.852-35.645 35.48-35.838h952.85c19.72 0.097 35.669 16.106 35.669 35.84 0 0 0 0 0 0v0 165.035c-0.096 19.661-16.009 35.573-35.66 35.669h-952.5c-19.794 0-35.84-16.046-35.84-35.84s0-1.195 0-1.877zM988.16 566.272h-952.32c-19.794 0-35.84-16.046-35.84-35.84s0-1.195 0-1.877v-163.157c0 0 0-0.001 0-0.002 0-19.674 15.852-35.645 35.48-35.838h952.85c19.721 0.097 35.67 16.106 35.67 35.84 0 0.060 0 0.12 0 0.18v-0.009 165.035c-0.097 19.72-16.106 35.669-35.84 35.669 0 0 0 0 0 0zM988.16 172.544h-952.32c-19.794 0-35.84-16.046-35.84-35.84s0-1.195 0-1.877v-162.987c0-19.794 16.046-35.84 35.84-35.84h952.491c19.72 0.097 35.669 16.106 35.669 35.84 0 0 0 0 0 0v0 165.035c-0.097 19.72-16.106 35.669-35.84 35.669 0 0 0 0 0 0z" />
<glyph unicode="&#x61;" glyph-name="fi-social-apple" horiz-adv-x="880" d="M850.261 616.448c-52.736 65.707-126.805 104.619-196.779 104.619-92.501 0-131.584-43.861-195.755-43.861s-116.395 43.008-196.437 43.008-162.133-47.787-215.040-129.365c-74.581-114.688-61.952-330.581 59.051-514.389 43.179-65.707 100.864-140.459 176.299-140.459 67.072 0 85.333 42.837 177.152 43.349s108.203-43.349 175.275-43.349c75.435 0 136.533 82.603 179.541 148.309 24.143 35.8 46.435 76.814 64.74 119.931-172.942 70.874-201.102 317.658-28.046 412.549zM583.339 793.771c31.801 38.422 51.094 88.207 51.094 142.498 0 8.36-0.457 16.612-1.349 24.734-63.001-8.682-117.708-39.6-156.125-84.796-34.42-41.647-62.409-102.746-51.487-162.479 64.235 1.484 120.975 32.321 157.516 79.57z" />
<glyph unicode="&#x62;" glyph-name="fi-archive" d="M1002.667 675.499h-981.333v-698.197c0-22.81 18.491-41.301 41.301-41.301h898.731c22.81 0 41.301 18.491 41.301 41.301zM712.533 397.995h-400.555v104.107h400.043zM50.005 918.016c-27.526-0.66-49.634-22.947-50.005-50.482v-119.502h1024v119.467c0 0.004 0 0.009 0 0.014 0 27.857-22.247 50.518-49.943 51.185z" />
<glyph unicode="&#x63;" glyph-name="fi-credit-card" d="M0-14.336c0-27.429 22.235-49.664 49.664-49.664h924.672c27.429 0 49.664 22.235 49.664 49.664v392.533h-1024zM974.336 669.867h-924.672c0 0-0.001 0-0.001 0-27.429 0-49.664-22.235-49.664-49.664 0-0.12 0-0.24 0.001-0.36v-102.382h1024v102.4c0.001 0.101 0.001 0.221 0.001 0.341 0 27.429-22.235 49.664-49.664 49.664 0 0-0.001 0-0.001 0z" />
<glyph unicode="&#x64;" glyph-name="fi-social-dropbox" d="M301.227 888.491l-301.227-196.779 208.213-166.741 303.787 187.563-210.773 175.957zM0 358.229v0l301.227-196.779 210.773 175.957-303.787 187.563-208.213-166.741zM512 337.408l210.773-175.957 301.227 196.779-208.213 166.741-303.787-187.563zM722.773 888.491l-210.773-175.957 303.787-187.563 208.213 166.741-301.227 196.779zM301.227 124.245l-90.453 59.051v-66.219l301.909-181.077 301.739 181.077v66.219l-90.453-59.051-211.285 175.275-211.456-175.275z" />
<glyph unicode="&#x65;" glyph-name="fi-eye" d="M512 223.915c123.759 0 224.085 100.326 224.085 224.085s-100.326 224.085-224.085 224.085c-123.759 0-224.085-100.326-224.085-224.085s100.326-224.085 224.085-224.085zM0 448s136.533 352.085 512 352.085 512-352.085 512-352.085-136.533-352.085-512-352.085-512 352.085-512 352.085zM512 352.085c52.972 0 95.915 42.942 95.915 95.915s-42.942 95.915-95.915 95.915c-52.972 0-95.915-42.942-95.915-95.915s42.942-95.915 95.915-95.915z" />
<glyph unicode="&#x66;" glyph-name="fi-social-facebook" horiz-adv-x="495" d="M109.739-64v512h-109.739v176.469h109.739v105.984c0 144.213 62.123 229.547 238.080 229.547h147.115v-176.469h-91.989c-68.267 0-73.216-24.747-73.216-70.656v-88.235h165.205l-18.773-176.64h-146.603v-512z" />
<glyph unicode="&#x67;" glyph-name="fi-social-google-plus" horiz-adv-x="1505" d="M1.195 471.893c-15.701-201.216 116.736-399.36 303.445-469.675s424.789-22.869 543.744 144.384c78.507 105.643 95.403 241.664 86.187 369.323-152.405 0.341-304.469 0.341-456.704 0.341 0-54.272 0-108.544 0-162.987 90.965-2.901 182.272-1.536 273.067-2.901-40.107-201.899-314.88-267.435-460.8-135.509-148.309 115.883-141.312 369.664 14.165 477.013 108.544 86.699 262.997 65.195 371.712-9.728 42.469 39.734 82.033 80.649 119.479 123.463-88.759 73.999-199.693 125.369-317.623 120.249-246.101 7.851-472.405-207.872-476.672-453.973zM1231.531 652.8c0-45.397-0.853-90.795-1.195-136.533l-136.533-0.853v-136.533l136.533-1.365c0-45.397 0-90.795 0.853-136.533h136.533c0 45.397 0 90.795 0.853 136.533l136.533 1.195v137.557l-136.533 0.853c0 45.397 0 90.965-0.853 136.533z" />
<glyph unicode="&#x68;" glyph-name="fi-social-github" d="M512 934.741c-0.11 0-0.241 0-0.371 0-282.77 0-512-229.23-512-512 0-225.030 145.173-416.153 346.974-484.823 29.205-5.844 37.739 10.028 37.739 23.51s0 44.373 0 87.040c-142.507-30.891-172.544 68.267-172.544 68.267-23.211 59.733-56.661 75.264-56.661 75.264-46.421 31.744 3.584 31.061 3.584 31.061 33.642-4.794 61.856-24.567 78.061-52.229 46.013-78.673 119.741-56.145 149.267-43.003 2.518 26.917 14.443 50.654 32.408 68.248-113.645 12.989-233.112 57.192-233.112 253.458-0.013 0.842-0.020 1.835-0.020 2.83 0 52.018 20.062 99.35 52.871 134.681-6.822 18.19-10.702 39.335-10.702 61.387 0 26.775 5.72 52.215 16.004 75.163s42.541 12.658 140.333-53.731c38.377 10.941 82.454 17.232 128 17.232s89.623-6.291 131.409-18.052c94.383 67.038 137.221 53.385 137.221 53.385 9.885-21.837 15.644-47.349 15.644-74.205 0-21.975-3.856-43.050-10.929-62.584 32.998-33.856 52.995-81.074 52.995-132.964 0-1.105-0.009-2.208-0.027-3.309 0.002-196.442-119.465-239.791-233.811-252.421 18.432-15.872 34.133-47.104 34.133-94.891 0-68.267 0-123.563 0-140.459 0-13.653 9.216-29.696 35.157-24.576 205.138 69.887 350.066 260.877 350.066 485.717 0 282.66-229.052 511.822-511.67 512z" />
<glyph unicode="&#x69;" glyph-name="fi-social-linkedin" d="M229.205-64h-212.139v684.032h212.139zM123.051 713.557c-0.051 0-0.111 0-0.171 0-68.053 0-123.221 55.168-123.221 123.221s55.168 123.221 123.221 123.221c68.053 0 123.221-55.168 123.221-123.221 0-0.051 0-0.111 0-0.171 0-67.959-55.092-123.051-123.051-123.051zM1024-64h-211.968v332.629c0 79.36-1.536 181.419-110.251 181.419s-127.317-86.357-127.317-175.616v-338.432h-212.139v684.032h203.605v-93.525h2.901c28.501 53.76 96.768 110.592 200.704 110.592 214.869 0 254.464-141.653 254.464-325.632v-375.467z" />
<glyph unicode="&#x6a;" glyph-name="fi-like" d="M0 43.349c-0.058 0.817-0.091 1.77-0.091 2.731s0.033 1.914 0.098 2.858l-0.007 424.15c0 22.056 17.88 39.936 39.936 39.936h78.336c21.424-0.661 38.562-18.097 38.741-39.577v-433.51c-2.112-19.854-18.565-35.244-38.699-35.669l-0.042-0.001h-78.336c-0.003 0-0.006 0-0.009 0-21.756 0-39.449 17.397-39.926 39.038zM236.373-23.211v575.147c0 22.056 17.88 39.936 39.936 39.936h158.72c2.507 3.71 5.381 6.909 8.636 9.672l155.716 269.709c15.697 27.709 44.937 46.131 78.49 46.251 49.908-0.578 90.13-41.157 90.13-91.13 0-0.182-0.001-0.364-0.002-0.546l0.853 0.028v-233.984h216.235c21.611-0.572 38.912-18.227 38.912-39.923 0-0.005 0-0.009 0-0.014v0.001-443.733c-0.022-5.463-2.235-10.404-5.804-13.996l-153.599-153.599c-3.34-2.78-7.675-4.467-12.404-4.467-0.983 0-1.948 0.073-2.892 0.213l-572.992-0.013c-0.013 0-0.029 0-0.044 0-21.301 0-38.691 16.749-39.717 37.796l-0.004 0.092v1.195s0 0 0 0 0 0 0 0zM977.067 106.837v0 0z" />
<glyph unicode="&#x6b;" glyph-name="fi-dislike" d="M1024 744.277v0c-0.022 5.463-2.235 10.404-5.804 13.996l-153.599 153.599c-3.36 2.775-7.711 4.458-12.455 4.458-0.965 0-1.913-0.070-2.84-0.204l-571.969 0.013c-0.013 0-0.029 0-0.044 0-21.301 0-38.691-16.749-39.717-37.796l-0.004-0.092v-1.365s0 0 0 0 0 0 0 0v-575.659c-0.008-0.305-0.013-0.664-0.013-1.024 0-22.001 17.79-39.846 39.77-39.936h158.387c2.395-3.843 5.163-7.153 8.325-10.036l1.744-2.935v-1.707h1.024l153.6-264.704c15.852-27.026 44.761-44.886 77.842-44.886 0.114 0 0.227 0 0.34 0.001 49.928 0.385 90.268 40.963 90.268 90.963 0 0.241-0.001 0.482-0.003 0.722l0.854-0.037v233.643h215.381c21.611 0.572 38.912 18.227 38.912 39.923 0 0.005 0 0.009 0 0.014v-0.001 443.733zM156.501 806.4v0c-0.289 21.835-18.057 39.424-39.933 39.424-0.001 0-0.002 0-0.003 0h-77.653c-21.476-0.475-38.726-17.904-38.912-39.406v-433.341c1.956-20.057 18.558-35.654 38.876-36.010h78.201c0 0 0.001 0 0.001 0 21.936 0 39.741 17.686 39.934 39.576 0.062 0.835 0.097 1.788 0.097 2.749s-0.035 1.914-0.104 2.857z" />
<glyph unicode="&#x6c;" glyph-name="fi-location-marker" horiz-adv-x="768" d="M384.037 960c212.124-0.388 383.963-172.467 383.963-384.682 0-0.18 0-0.36 0-0.513 0-268.288-384-638.805-384-638.805s-384 370.517-384 638.778c0 0.18 0 0.36 0 0.54 0 212.215 171.84 384.294 384 384.682zM384 767.317c-0.152 0-0.332 0.001-0.512 0.001-106.416 0-192.683-86.267-192.683-192.683s86.267-192.683 192.683-192.683c106.416 0 192.683 86.267 192.683 192.683 0 0.060 0 0.12 0 0.179 0 0.041 0 0.101 0 0.161 0 106.167-86.017 192.244-192.161 192.341z" />
<glyph unicode="&#x6d;" glyph-name="fi-mail" d="M896 960h-768c-70.614-0.194-127.806-57.386-128-127.981v-76.819c186.027-100.011 418.304-230.912 431.957-238.933 21.96-10.812 47.803-17.137 75.122-17.137 1.73 0 3.454 0.025 5.172 0.076 1.203-0.050 2.914-0.075 4.632-0.075 27.332 0 53.187 6.324 76.181 17.588 12.631 6.886 244.908 137.788 430.935 238.481v76.8c-0.194 70.614-57.386 127.806-127.981 128zM592.043 362.667c-20.366-10.95-44.565-17.384-70.266-17.384-3.44 0-6.853 0.115-10.235 0.342-2.466-0.227-5.878-0.342-9.318-0.342-25.701 0-49.9 6.434-71.073 17.779-17.284 9.674-243.417 140.576-431.151 238.538v-537.6c0.193-70.555 57.288-127.71 127.802-128h768.028c0 0 0 0 0 0 70.727 0 128.073 57.287 128.171 127.991v537.609c-187.733-97.963-413.867-228.864-431.957-238.933z" />
<glyph unicode="&#x6e;" glyph-name="fi-notification" horiz-adv-x="828" d="M804.011 170.155c-56.593 42.156-94.077 107.245-98.612 181.242q-0.034 7.856-0.034 15.195v230.571c0 0.036 0 0.078 0 0.121 0 77.372-30.286 147.671-79.651 199.687l0.12-0.128c-4.779 4.949-9.728 9.728-14.677 14.507l-2.048 1.877c-4.608 4.267-9.557 8.363-14.507 12.288l-3.755 2.901q-6.827 5.291-14.165 10.069l-5.632 3.755c-4.437 2.901-8.875 5.632-13.483 8.192l-7.68 4.096-12.629 6.485-10.24 4.437-11.264 4.608c-4.437 1.707-9.045 3.072-13.653 4.608l-8.875 2.901c-7.68 2.219-15.701 4.096-23.723 5.632v21.504c0 30.586-24.795 55.381-55.381 55.381s-55.381-24.795-55.381-55.381v-21.675c-8.021-1.536-15.872-3.413-23.552-5.632l-9.387-2.731c-4.608-1.536-9.216-2.901-13.653-4.608l-11.264-4.608-10.24-4.437-12.629-6.485-7.68-4.096c-4.608-2.56-9.045-5.461-13.483-8.192l-5.632-3.755c-4.779-3.243-9.557-6.656-14.165-10.069l-3.755-2.901c-4.949-3.925-9.728-8.021-14.507-12.288l-1.877-1.877c-5.12-4.608-10.069-9.387-14.677-14.507v0c-49.244-51.889-79.531-122.187-79.531-199.559 0-0.043 0-0.085 0-0.128v-230.564c0-4.779 0-9.728 0-14.507-4.698-74.762-42.366-139.862-98.498-181.464l-24.212-17.875v-122.539h292.523c14.321-54.478 63.131-94.007 121.173-94.007s106.853 39.529 120.978 93.135l292.889 0.872v122.539z" />
<glyph unicode="&#x6f;" glyph-name="fi-pause" horiz-adv-x="758" d="M217.941 960h-181.077c-20.359 0-36.864-16.505-36.864-36.864v0-950.101c0-0.051 0-0.111 0-0.171 0-20.359 16.505-36.864 36.864-36.864 0 0 0 0 0 0h180.907c20.359 0 36.864 16.505 36.864 36.864v0 950.101c0 0.051 0 0.111 0 0.171 0 20.3-16.408 36.767-36.684 36.864zM758.443-26.965v950.101c0 0 0 0 0 0 0 20.299-16.407 36.767-36.684 36.864h-181.087c-20.359 0-36.864-16.505-36.864-36.864v0-950.101c0-0.051 0-0.111 0-0.171 0-20.359 16.505-36.864 36.864-36.864 0 0 0 0 0 0h180.907c20.359 0 36.864 16.505 36.864 36.864v0z" />
<glyph unicode="&#x70;" glyph-name="fi-play" horiz-adv-x="897" d="M896.853 448c-0.066 13.948-7.832 26.066-19.263 32.33l-819.051 473.014c-5.945 4.206-13.345 6.724-21.333 6.724-20.548 0-37.205-16.657-37.205-37.205 0-0.024 0-0.048 0-0.071-0.043-0.634-0.067-1.379-0.067-2.13s0.024-1.495 0.072-2.234l-0.005 0.101v-949.419c2.132-18.71 17.874-33.111 36.979-33.111 0.139 0 0.279 0.001 0.418 0.002 6.844 0.018 13.262 1.918 18.748 5.212l-0.166-0.092 822.443 474.112c11.104 6.533 18.439 18.424 18.439 32.028 0 0.26-0.003 0.52-0.008 0.779z" />
<glyph unicode="&#x71;" glyph-name="fi-eye-hide" d="M201.216 838.997c-2.596 2.605-6.187 4.217-10.155 4.217s-7.559-1.612-10.154-4.216l-61.44-60.928c-2.605-2.596-4.217-6.187-4.217-10.155s1.612-7.559 4.216-10.154l701.27-700.758c2.596-2.605 6.187-4.217 10.155-4.217s7.559 1.612 10.154 4.216l60.928 60.928c2.605 2.596 4.217 6.187 4.217 10.155s-1.612 7.559-4.216 10.154zM665.6 456.533c-4.372 78.297-66.77 140.695-144.666 145.049zM358.4 437.419c5.285-76.768 66.251-137.734 142.541-142.992zM512 671.915c0.243 0.001 0.531 0.002 0.818 0.002 123.288 0 223.232-99.944 223.232-223.232 0-19.895-2.603-39.181-7.486-57.539l150.881-148.97c60.159 57.039 108.919 125.422 142.957 201.809s-134.935 356.101-510.402 356.101c-0.695 0.003-1.517 0.005-2.339 0.005-58.177 0-114.196-9.241-166.669-26.335l113.712-108.838c16.592 4.431 35.643 6.983 55.287 6.997zM512 223.915c-0.228-0.001-0.498-0.001-0.768-0.001-123.288 0-223.232 99.944-223.232 223.232 0 19.337 2.459 38.1 7.081 55.993l-151.38 149.661c-59.739-56.808-108.2-124.836-142.102-200.79s134.934-355.925 510.401-355.925c0.727-0.004 1.587-0.006 2.447-0.006 57.572 0 113.029 9.053 165.026 25.812l-113.884 109.020c-16.056-4.238-34.509-6.722-53.525-6.826z" />
<glyph unicode="&#x72;" glyph-name="fi-reply" d="M1018.197 2.048c-94.208 337.749-356.693 426.667-516.779 448.683l-84.309 11.605v-223.573l-417.109 327.509 417.109 327.339v-175.957l62.293-10.069c203.264-33.28 352.939-115.2 442.197-243.883 82.773-119.467 115.712-279.723 96.256-461.653z" />
<glyph unicode="&#x73;" glyph-name="fi-share" horiz-adv-x="871" d="M724.309 594.261c-18.787-0.030-36.732-3.598-53.217-10.072l-378.911 219.821c0 3.243 0 6.485 0 9.728-0.286 80.75-65.812 146.1-146.602 146.1-80.966 0-146.603-65.636-146.603-146.603s65.636-146.603 146.603-146.603c32.171 0 61.921 10.362 86.096 27.931l352.858-203.215c-4.21-13.064-6.637-28.094-6.637-43.691s2.427-30.627 6.924-44.733l-352.543-202.393c-23.762 17.425-53.583 27.883-85.845 27.883-80.684 0-146.091-65.407-146.091-146.091s65.407-146.091 146.091-146.091c80.684 0 146.091 65.407 146.091 146.091 0 0.037 0 0.075 0 0.112 0 3.066 0 5.968 0 8.869l380.416 220.16c15.309-5.943 33.028-9.386 51.552-9.386 80.778 0 146.261 65.483 146.261 146.261s-65.483 146.261-146.261 146.261c-0.124 0-0.247 0-0.371 0z" />
<glyph unicode="&#x74;" glyph-name="fi-social-twitter" horiz-adv-x="1218" d="M1218.048 825.685c-41.589-18.946-89.834-32.762-140.423-39.009 49.255 31.051 88.111 79.092 106.978 136.225-45.177-25.853-98.349-46.93-154.997-58.44-49.015 48.489-114.054 79.052-186.231 79.052-138.18 0-250.197-112.017-250.197-250.197 0-20.429 2.448-40.285 7.068-59.293-208.387 12.694-391.297 111.711-513.9 261.895-22.372-34.799-34.994-78.235-34.994-124.62 0-86.188 43.58-162.198 109.907-207.195-40.859 0.781-79.652 12.196-113.518 31.316 1.242-1.669 1.242-2.693 1.242-3.717 0.053-120.496 85.278-221.072 198.736-244.793-18.020-5.811-40.581-8.989-63.884-8.989-0.129 0-0.258 0-0.387 0-0.039 0-0.109 0-0.179 0-16.53 0-32.683 1.615-48.31 4.696 34.425-100.367 126.132-171.764 234.807-173.823-84.086-66.609-191.923-106.842-309.157-106.842-0.367 0-0.735 0-1.102 0.001-20.933 0.002-41.631 1.242-61.971 3.651 110.58-70.657 242.885-112.537 384.972-112.537 0.225 0 0.45 0 0.675 0 459.571 0 710.793 380.757 710.793 710.997 0 10.752 0 21.675 0 32.256 49.075 35.761 90.418 78.625 123.442 127.566z" />
<glyph unicode="&#x75;" glyph-name="fi-white-label-video" horiz-adv-x="1114" d="M1102.848 672.427s-10.581 77.312-44.715 111.445c-28.423 29.011-67.857 47.141-111.527 47.615-155.908 11.265-389.721 11.265-389.721 11.265v0s-89.259 0-194.219-2.731l-1.707-1.707v-388.779c0-6.786-5.502-12.288-12.288-12.288-3.509 0.016-6.664 1.522-8.867 3.917l-88.243 88.243c-1.923 2.313-4.802 3.774-8.021 3.774s-6.098-1.462-8.008-3.757l-0.014-0.017-89.6-88.747c-2.162-2.096-5.109-3.395-8.359-3.413-6.79 0-12.292 5.502-12.292 12.288v375.637c-27.755-7.101-51.477-21.577-69.721-41.213-34.215-34.222-44.284-111.534-44.284-111.534-6.606-53.897-10.682-116.924-11.258-180.786l-0.006-86.137c0.52-64.592 4.535-127.632 11.87-189.654s10.146-69.247 43.426-103.38c42.325-44.715 97.963-43.349 122.88-47.957 89.088-8.533 378.709-11.264 378.709-11.264s234.155 0 389.973 11.776c43.612 0.524 82.907 18.575 111.252 47.422 34.156 34.156 44.396 111.468 44.396 111.468 6.56 54.011 10.575 117.11 11.089 181.045l0.005 86.049c-0.518 64.65-4.534 127.749-11.87 189.832zM440.661 292.352v316.245l295.936-154.965z" />
<glyph unicode="&#x76;" glyph-name="fi-social-drive" d="M383.488 245.419l-177.664-305.323h640.512l177.664 305.323h-640.512zM329.216 818.688l320.341-554.667 353.28-1.024-320.171 554.667-353.451 1.024zM0 242.517l175.787-306.517 320.171 554.667-175.616 306.517-320.341-554.667z" />
<glyph unicode="&#x77;" glyph-name="fi-wordpress" d="M512 960c-282.77 0-512-229.23-512-512s229.23-512 512-512c282.77 0 512 229.23 512 512s-229.23 512-512 512zM255.147 644.608c25.259 1.365 47.957 4.096 47.957 4.096 8.85 0.729 15.756 8.091 15.756 17.067 0 9.456-7.665 17.121-17.121 17.121-0.481 0-0.956-0.020-1.427-0.059s-68.205-5.287-111.725-5.287c-7.851 0-17.067 0-26.965 0 76.052 114.526 204.485 188.994 350.311 188.994 109.329 0 208.881-41.857 283.507-110.42l-5.764 0.274c-39.179-1.128-70.51-33.157-70.51-72.505 0-0.67 0.009-1.338 0.027-2.004-0.002-34.035 19.966-63.731 41.129-98.206 21.048-32.798 33.711-72.734 34.132-115.6 0.001-35.952-13.823-77.595-31.914-135.622l-41.813-139.776-150.869 451.925c25.259 1.365 47.957 4.096 47.957 4.096 8.85 0.729 15.756 8.091 15.756 17.067 0 9.456-7.665 17.121-17.121 17.121-0.481 0-0.956-0.020-1.427-0.059s-68.205-5.287-111.725-5.287c-41.131 0-110.421 5.291-110.421 5.291-0.409 0.035-0.885 0.055-1.365 0.055-9.456 0-17.121-7.665-17.121-17.121 0-8.975 6.906-16.337 15.694-17.063s21.395-2.564 44.094-4.1l65.365-179.541-91.819-274.603zM329.045 70.656c-141.030 69.533-236.344 212.284-236.344 377.297 0 61.818 13.377 120.511 37.393 173.343zM519.339 411.989l129.195-353.792c0.957-2.241 1.985-4.148 3.161-5.948-41.53-14.922-89.365-23.635-139.236-23.635-42.262 0-83.063 6.257-121.527 17.896zM722.773 85.675l128 370.347c19.469 44.241 31.134 95.751 31.911 149.895 0.003 0.411 0.004 0.553 0.004 0.694 0 15.086-1.055 29.926-3.094 44.45 32.457-59.671 51.452-128.883 51.452-202.531 0-153.868-82.908-288.372-206.488-361.276z" />
<glyph unicode="&#x78;" glyph-name="fi-widget-settings-config" d="M999.424 530.944l-129.877 12.8c-9.193 33.918-21.85 63.586-37.968 90.973l83.877 99.32c3.807 4.657 6.114 10.669 6.114 17.22 0 7.537-3.054 14.362-7.992 19.303l-79.019 79.019c-4.941 4.938-11.765 7.992-19.302 7.992-6.551 0-12.564-2.307-17.269-6.153l-100.986-82.905c-25.672 15.185-55.341 27.841-86.69 36.434l-15.369 130.478c-1.433 13.848-13.031 24.558-27.134 24.576h-111.618c-14.105-0.018-25.703-10.728-27.126-24.459l-12.81-130.165c-33.915-9.179-63.585-21.837-90.966-37.965l-99.327 83.874c-4.657 3.807-10.669 6.114-17.22 6.114-7.537 0-14.362-3.054-19.303-7.992l-78.848-78.848c-4.938-4.941-7.992-11.765-7.992-19.302 0-6.551 2.307-12.564 6.153-17.269l82.905-100.986c-15.194-25.673-27.851-55.343-36.436-86.695l-130.646-15.363c-13.848-1.433-24.558-13.031-24.576-27.134v-111.618c0.018-14.105 10.728-25.703 24.459-27.126l130.165-12.81c9.175-33.915 21.832-63.585 37.964-90.964l-83.873-99.329c-3.889-4.663-6.251-10.718-6.251-17.325 0-7.498 3.041-14.286 7.957-19.197l78.848-78.848c4.941-4.938 11.765-7.992 19.302-7.992 6.551 0 12.564 2.307 17.269 6.153l100.986 82.905c25.671-15.228 55.334-27.938 86.678-36.597l15.38-130.485c1.434-13.86 13.050-24.576 27.17-24.576 0.048 0 0.096 0 0.144 0h111.609c14.105 0.018 25.703 10.728 27.126 24.459l12.81 129.994c33.919 9.237 63.585 21.949 90.955 38.133l99.338-83.872c4.657-3.807 10.669-6.114 17.22-6.114 7.537 0 14.362 3.054 19.303 7.992l78.848 78.848c4.916 4.912 7.957 11.699 7.957 19.197 0 6.607-2.361 12.663-6.286 17.369l-82.909 100.991c15.183 25.672 27.839 55.341 36.434 86.688l130.478 15.37c13.995 1.266 24.882 12.924 24.917 27.132v111.62c-0.018 14.105-10.728 25.703-24.459 27.126zM512 296.96c-83.417 0-151.040 67.623-151.040 151.040s67.623 151.040 151.040 151.040c83.417 0 151.040-67.623 151.040-151.040s-67.623-151.040-151.040-151.040z" />
<glyph unicode="&#x79;" glyph-name="fi-social-youtube" horiz-adv-x="1114" d="M1102.848 672.427s-10.581 77.312-44.715 111.445c-28.423 29.011-67.857 47.141-111.527 47.615-155.908 11.265-389.721 11.265-389.721 11.265v0s-233.813 0-389.803-11.264c-43.755-0.495-83.183-18.62-111.591-47.59-34.159-34.159-44.228-111.471-44.228-111.471-6.601-53.889-10.677-116.916-11.258-180.777l-0.006-86.146c0.524-64.599 4.54-127.638 11.87-189.662s10.146-69.239 43.426-103.372c42.325-44.715 97.963-43.349 122.88-47.957 89.088-8.533 378.709-11.264 378.709-11.264s233.984 0 389.973 11.776c43.612 0.524 82.907 18.575 111.252 47.422 34.156 34.156 44.396 111.468 44.396 111.468 6.56 54.009 10.576 117.109 11.089 181.043l0.005 86.051c-0.518 64.65-4.534 127.749-11.87 189.832zM440.661 292.352v316.245l295.936-154.965z" />
<glyph unicode="&#x7a;" glyph-name="fi-filter" d="M1024 728.576c-0.063 44.774-35.52 81.246-79.888 82.939l-860.997 0.005c-0.072 0-0.157 0-0.243 0-45.903 0-83.115-37.212-83.115-83.115 0-26.158 12.084-49.494 30.974-64.73l386.036-386.343v-238.933c0.665-15.332 9.197-28.533 21.637-35.729l0.209-0.111 103.424-59.733c6.303-3.758 13.9-5.98 22.016-5.98 24.035 0 43.52 19.485 43.52 43.52 0 0.062 0 0.124 0 0.187 0 1.185 0 2.209 0 3.404v0 293.376l389.803 389.632c16.397 15.17 26.628 36.8 26.628 60.82 0 0.278-0.001 0.555-0.004 0.833zM284.843 645.291v0z" />
<glyph unicode="&#x7b;" glyph-name="fi-italic" horiz-adv-x="382" d="M382.464 912.896c0 26.015-21.089 47.104-47.104 47.104h-83.115c-0.17 0.002-0.371 0.003-0.573 0.003-25.081 0-45.568-19.674-46.868-44.432l-0.005-0.116-204.8-921.6v-2.048c-0.118-1.228-0.185-2.654-0.185-4.096s0.067-2.868 0.199-4.276c-0.018-0.060-0.021-0.343-0.021-0.626 0-24.722 19.114-44.979 43.37-46.8l0.157-0.009h86.699c24.249 0.061 44.173 18.503 46.576 42.127l0.016 0.199 203.605 921.6c1.141 3.771 1.823 8.11 1.877 12.6z" />
<glyph unicode="&#x7c;" glyph-name="fi-flag" horiz-adv-x="976" d="M955.733 798.208c-0.041 0-0.090 0-0.138 0-2.841 0-5.551-0.565-8.023-1.588l0.139 0.051c-43.859-23.422-95.925-37.187-151.205-37.205-0.183 0-0.392-0.001-0.601-0.001-100.738 0-190.848 45.506-250.895 117.083-54.643 51.823-128.037 83.375-208.8 83.375-77.746 0-148.664-29.239-202.356-77.32-11.133 24.557-35.409 41.082-63.544 41.082-38.834 0-70.315-31.481-70.315-70.315 0-0.253 0.001-0.507 0.004-0.759v-846.127c0-38.928 31.557-70.485 70.485-70.485s70.485 31.557 70.485 70.485v381.099c42.989 22.156 93.818 35.145 147.68 35.145 100.884 0 191.125-45.566 251.266-117.241 54.587-51.676 127.857-83.13 208.473-83.13 87.143 0 165.702 36.754 221.020 95.606 4.335 3.97 6.957 9.436 6.974 15.516v443.736c0 0.001 0 0.002 0 0.003 0 11.474-9.205 20.797-20.633 20.989z" />
<glyph unicode="&#x7d;" glyph-name="fi-puzzle" horiz-adv-x="750" d="M749.397 464.043v168.96c0 28.277-22.923 51.2-51.2 51.2v0h-164.693c-36.869 2.304-65.899 32.769-65.899 70.015 0 16.259 5.532 31.226 14.816 43.121l-1.141-0.156c9.014 15.408 14.336 33.925 14.336 53.686 0 59.476-48.215 107.691-107.691 107.691s-107.691-48.215-107.691-107.691c0-19.761 5.322-38.278 14.612-54.197l-1.47 0.511c9.091-11.71 14.573-26.616 14.573-42.803 0-37.202-28.961-67.639-65.567-69.997l-0.206-0.011h-190.976c-28.277 0-51.2-22.923-51.2-51.2s0-1.365 0-2.219v-176.128c0-16.212 13.143-29.355 29.355-29.355 3.057 0.029 5.988 0.526 8.739 1.423 15.082 6.908 32.95 10.968 51.766 10.968 70.692 0 128-57.308 128-128s-57.308-128-128-128c-18.031 0-35.192 3.728-50.753 10.456-2.359 0.983-6.059 1.739-9.935 1.739-16.118 0-29.184-13.066-29.184-29.184 0-0.304 0.005-0.606 0.014-0.907-0.073-0.698-0.114-1.559-0.114-2.431s0.041-1.733 0.121-2.583l-0.008 0.109v-168.96s0-1.536 0-2.219c0.097-28.675 23.365-51.883 52.053-51.883 0 0 0 0 0 0h177.152c0.127-0.002 0.276-0.003 0.426-0.003 16.024 0 29.013 12.99 29.013 29.013 0 3.425-0.594 6.712-1.684 9.763l0.063-0.203s0 1.365 0 2.048v0c-3.357 10.903-5.291 23.435-5.291 36.42 0 70.692 57.308 128 128 128s128-57.308 128-128c0-12.984-1.933-25.517-5.528-37.327l0.237 0.907c-1.422-3.329-2.249-7.202-2.249-11.268 0-16.043 12.869-29.080 28.847-29.35h168.132c28.085 0.471 50.729 23.115 51.199 51.155l0.001 0.045v170.667c-1.842 14.555-14.116 25.707-29.007 25.771l-0.007 1.365c-10.294-2.98-22.119-4.693-34.343-4.693-70.692 0-128 57.308-128 128s57.308 128 128 128c12.225 0 24.049-1.714 35.246-4.914l-0.903 1.415c0.009 0 0.019 0 0.029 0 13.136 0 24.245 8.679 27.906 20.615l1.42 0.207v8.021s0 0 0 0 0 0 0 0z" />
<glyph unicode="&#x7e;" glyph-name="fi-brush" horiz-adv-x="696" d="M0 366.080c-0.043-1.089-0.067-2.367-0.067-3.651 0-54.575 44.241-98.816 98.816-98.816 1.284 0 2.563 0.024 3.835 0.073l81.737-0.006c0.943 0.054 2.047 0.085 3.157 0.085 32.236 0 58.368-26.132 58.368-58.368 0-1.111-0.031-2.214-0.092-3.31l0.007-219.496c0.097-25.693 20.899-46.495 46.583-46.592h111.455c25.693 0.097 46.495 20.899 46.592 46.583v219.487c-0.061 0.998-0.096 2.164-0.096 3.338 0 32.236 26.132 58.368 58.368 58.368 1.174 0 2.341-0.035 3.498-0.103l81.761 0.008c1.142-0.047 2.482-0.074 3.829-0.074 54.48 0 98.645 44.165 98.645 98.645 0 1.347-0.027 2.687-0.080 4.020l0.006 102.209h-696.32zM257.707 960l-73.387-73.387-73.387 73.387h-110.933v-450.56h696.32v450.56h-438.613z" />
<glyph unicode="&#xa1;" glyph-name="fi-crown" horiz-adv-x="943" d="M943.445 31.915v0c0 23.281-18.873 42.155-42.155 42.155h-859.136c-23.281 0-42.155-18.873-42.155-42.155v-53.76c0-23.281 18.873-42.155 42.155-42.155h859.136c23.281 0 42.155 18.873 42.155 42.155zM119.467 608.427v0c-7.861 6.851-18.209 11.028-29.532 11.028-24.621 0-44.629-19.748-45.049-44.268l-1.195-0.039v-405.333h1.365c2.163-23.099 21.415-41.047 44.877-41.131h763.4v1.024c23.081 0.117 42.065 17.505 44.694 39.894l0.020 0.212v397.653c0.631 2.813 1.003 6.051 1.024 9.372 0.001 0.093 0.001 0.185 0.001 0.277 0 24.884-20.172 45.056-45.056 45.056-10.85 0-20.804-3.835-28.581-10.223l0.078 0.063-1.195-1.195c-1.535-1.338-2.929-2.732-4.223-4.215l-95.446-95.454-219.477 219.307c-8.246 8.818-19.951 14.314-32.939 14.314s-24.693-5.496-32.915-14.288l-0.024-0.026-221.355-220.331-93.867 93.867c-1.441 1.579-2.945 3.029-4.537 4.379zM790.187 492.032v-1.365h-1.365zM88.235 849.067c46.28 0 83.797-37.517 83.797-83.797s-37.517-83.797-83.797-83.797c-46.28 0-83.797 37.517-83.797 83.797s37.517 83.797 83.797 83.797zM851.115 849.067c0.203 0.002 0.443 0.003 0.683 0.003 46.28 0 83.797-37.517 83.797-83.797s-37.517-83.797-83.797-83.797c-46.279 0-83.796 37.516-83.797 83.794 0 0.001 0 0.002 0 0.003 0 46.040 37.129 83.408 83.078 83.794zM476.501 960c46.207-0.097 83.627-37.577 83.627-83.797 0-46.28-37.517-83.797-83.797-83.797s-83.797 37.517-83.797 83.797c0 0 0 0 0 0 0 46.28 37.517 83.797 83.797 83.797 0.060 0 0.12 0 0.18 0z" />
<glyph unicode="&#xa2;" glyph-name="fi-upload-cloud" d="M877.056 528.555c-9.452 86.149-81.821 152.577-169.705 152.577-20.539 0-40.23-3.628-58.468-10.278-21.445 94.546-104.938 163.441-204.522 163.441-107.089 0-195.57-79.67-209.405-182.972-130.224-5.606-234.086-111.735-234.956-242.321 0-134.74 114.688-244.82 249.173-244.82h29.696c10.462 0 18.944 8.482 18.944 18.944v85.333c-0.007 0.574-0.010 1.252-0.010 1.931 0 95.618 74.252 173.893 168.242 180.311 3.106 0.161 6.090 0.236 9.091 0.236 97.979 0 177.416-79.389 177.493-177.35v-90.29c0-10.462 8.482-18.944 18.944-18.944h163.328c0.069 0 0.15 0 0.231 0 102.662 0 186.199 81.884 188.862 183.903-0.074 88.679-62.532 162.5-145.738 180.087zM593.408 227.157l-109.909 153.6c-1.943 2.7-5.076 4.438-8.615 4.438-0.031 0-0.062 0-0.094 0h0.005c-0.026 0-0.058 0-0.089 0-3.539 0-6.673-1.738-8.594-4.406l-109.248-153.631c-1.387-1.773-2.225-4.034-2.225-6.491 0-5.844 4.737-10.581 10.581-10.581 0.122 0 0.244 0.002 0.365 0.006h51.182v-137.557c0-5.844 4.737-10.581 10.581-10.581h95.061c5.844 0 10.581 4.737 10.581 10.581v137.728h51.2c0.104-0.004 0.225-0.006 0.348-0.006 5.844 0 10.581 4.737 10.581 10.581 0 2.457-0.837 4.718-2.242 6.514z" />
<glyph unicode="&#xa3;" glyph-name="fi-download-cloud" d="M877.056 528.555c-9.452 86.149-81.821 152.577-169.705 152.577-20.539 0-40.23-3.628-58.468-10.278-21.445 94.546-104.938 163.441-204.522 163.441-107.089 0-195.57-79.67-209.405-182.972-130.224-5.606-234.086-111.735-234.956-242.321-0.854-134.57 114.688-244.65 249.173-244.65h29.696c10.462 0 18.944 8.482 18.944 18.944v85.333c-0.007 0.574-0.010 1.252-0.010 1.931 0 95.618 74.252 173.893 168.242 180.311 3.157 0.167 6.201 0.244 9.262 0.244 97.933 0 177.323-79.39 177.323-177.323 0-0.015 0-0.030 0-0.046v-90.28c0-10.462 8.482-18.944 18.944-18.944h163.328c0.070 0 0.153 0 0.236 0 102.602 0 186.101 81.788 188.858 183.724-0.142 88.663-62.567 162.448-145.735 180.094zM593.408 219.819l-109.909-153.6c-1.977-2.702-5.137-4.437-8.702-4.437-0.001 0-0.001 0-0.002 0v0c-0.026 0-0.058 0-0.089 0-3.539 0-6.673 1.738-8.594 4.406l-109.248 153.631c-0.968 1.582-1.541 3.498-1.541 5.547s0.573 3.964 1.568 5.594c1.749 3.407 5.28 5.734 9.357 5.755h51.203v137.899c0 5.844 4.737 10.581 10.581 10.581h95.061c5.844 0 10.581-4.737 10.581-10.581v-138.069h51.2c0.104 0.004 0.225 0.006 0.348 0.006 5.844 0 10.581-4.737 10.581-10.581 0-2.457-0.837-4.718-2.242-6.514z" />
<glyph unicode="&#xa5;" glyph-name="fi-color-pick-eyedropper" d="M646.997 791.552l45.056-45.227-304.299-304.469c0.395-4.001 0.62-8.648 0.62-13.348 0-37.29-14.17-71.27-37.419-96.85l22.634-22.41 22.528-22.528c25.415 23.141 59.352 37.311 96.598 37.311 4.687 0 9.321-0.224 13.893-0.663l303.887 304.514 45.056-45.227 51.2 51.2-208.896 208.384zM506.197 385.365c-6.949-6.006-16.072-9.665-26.049-9.665-22.056 0-39.936 17.88-39.936 39.936 0 9.977 3.659 19.1 9.708 26.1l273.024 273.016 56.32-56.491zM999.424 935.424v0c-15.17 15.196-36.14 24.597-59.307 24.597s-44.137-9.401-59.306-24.596l-118.273-118.444 118.613-119.467 118.272 118.443c15.411 15.23 24.955 36.367 24.955 59.733s-9.544 44.503-24.947 59.725zM486.571 51.2h-370.688v371.029h156.331c5.090 0 9.216 4.126 9.216 9.216v96.768c0 5.090-4.126 9.216-9.216 9.216h-262.997c-5.090 0-9.216-4.126-9.216-9.216v-582.997c0-0.008 0-0.016 0-0.025 0-5.090 4.126-9.216 9.216-9.216 0.24 0 0.478 0.009 0.714 0.027l583.819-0.002c5.090 0 9.216 4.126 9.216 9.216v262.485c0 5.090-4.126 9.216-9.216 9.216h-97.451c-5.090 0-9.216-4.126-9.216-9.216z" />
<glyph unicode="&#xa7;" glyph-name="fi-comment" d="M278.357 74.411c-21.845-59.563-82.944-102.4-122.197-123.392-18.091-9.899-3.584-15.019 11.605-15.019h5.291c103.879 7.708 198.451 41.865 278.727 95.689 16.569-3.403 38.282-4.641 60.267-4.724 282.916 0 512.121 190.976 512.121 426.666s-229.205 426.667-512 426.667-512-191.147-512-426.667c0-165.376 113.152-308.395 278.357-379.221z" />
<glyph unicode="&#xa8;" glyph-name="fi-text-color" d="M982.528 18.944h-942.421c-21.731-1.439-38.813-19.418-38.813-41.387s17.082-39.948 38.688-41.38l942.546-0.007c22.904 0 41.472 18.568 41.472 41.472s-18.568 41.472-41.472 41.472zM170.667 114.517h78.507c0.067 0 0.145-0.001 0.224-0.001 15.639 0 28.938 10.017 33.833 23.984l48.375 127.569h359.765l49.835-131.413c5.533-10.993 16.263-18.657 28.876-19.787l0.138-0.010h81.749c0.053 0 0.115 0 0.178 0 19.7 0 35.669 15.97 35.669 35.669 0 3.903-0.627 7.66-1.786 11.175l0.072-0.252v4.267l-279.040 707.413c-4.82 14.486-18.252 24.747-34.080 24.747-0.019 0-0.038 0-0.056 0h-122.024c-15.996-0.132-29.494-10.673-34.064-25.174l-280.304-710.228c-1.384-3.655-2.186-7.881-2.186-12.294 0-19.7 15.97-35.669 35.669-35.669 0.228 0 0.456 0.002 0.684 0.006zM512 760.491l140.971-373.419h-282.283z" />
<glyph unicode="&#xa9;" glyph-name="fi-layout" horiz-adv-x="1021" d="M1020.757 763.392h-1020.757v133.632c0 34.781 28.195 62.976 62.976 62.976h894.805c34.781 0 62.976-28.195 62.976-62.976zM236.373-64h-173.397c-34.781 0-62.976 28.195-62.976 62.976v697.856h236.373zM299.52 696.832h721.408v-378.368h-721.408v378.368zM957.781-64h-658.261v315.392h721.237v-252.416c0-34.781-28.195-62.976-62.976-62.976z" />
<glyph unicode="&#xaa;" glyph-name="fi-comment-3" d="M512 899.413c-315.733 0-512-161.28-512-421.205 0-170.667 83.285-300.203 235.349-368.128-5.584-48.986-22.586-93.124-48.264-130.888l-32.461-43.192h54.784c147.115 0 233.301 63.488 281.429 121.515h21.163c320.683 0 512 157.525 512 421.205 0 259.413-196.096 420.693-512 420.693zM512 185.344v0l-80.213 2.389-39.253-48.299c-2.901-3.413-5.803-6.827-8.875-10.069l-17.067-18.432 11.605 76.459-89.259 39.936c-105.813 47.275-159.403 131.755-159.403 250.88-1.024 264.363 267.093 292.864 382.464 292.864s383.488-28.501 383.488-292.864c0-254.635-239.957-292.693-382.976-292.693z" />
<glyph unicode="&#xab;" glyph-name="fi-laptop" d="M125.099 136.533h773.803c29.523 0.097 53.419 24.053 53.419 53.589 0 0 0 0 0 0v473.941c0 29.502-23.916 53.419-53.419 53.419h-773.803c-29.502 0-53.419-23.916-53.419-53.419v-474.112c0 0 0 0 0 0 0-29.537 23.896-53.492 53.409-53.589zM178.517 610.475h666.795v-367.275h-666.624zM999.424 82.944h-974.677c-13.667 0-24.747-11.079-24.747-24.747v-59.733c-0.002-0.108-0.003-0.235-0.003-0.363 0-6.447 2.465-12.318 6.505-16.722l34.117-37.87c4.505-4.65 10.806-7.537 17.782-7.537 0.409 0 0.815 0.010 1.219 0.029l902.258-0.002c6.688 0.147 12.7 2.925 17.065 7.337l37.549 37.89c4.351 4.388 7.070 10.401 7.168 17.048v59.752c-0.096 13.534-11.042 24.48-24.567 24.576zM605.013-2.731c0.019-0.161 0.029-0.347 0.029-0.536 0-2.563-1.949-4.672-4.446-4.924l-177.344-0.002c-2.518 0.254-4.466 2.362-4.466 4.926 0 0.189 0.011 0.375 0.031 0.558l-0.002 24.041c-0.019 0.161-0.029 0.347-0.029 0.536 0 2.563 1.949 4.672 4.446 4.924l177.514 0.002c2.518-0.254 4.466-2.362 4.466-4.926 0-0.189-0.011-0.375-0.031-0.558z" />
<glyph unicode="&#xac;" glyph-name="fi-arrows-expand" d="M52.565 271.872l-52.565-315.051c-0.168-0.922-0.264-1.982-0.264-3.065 0-4.931 1.992-9.397 5.214-12.637l-0.001 0.001c3.114-3.258 7.493-5.283 12.345-5.283 1.188 0 2.347 0.121 3.466 0.352l314.087 53.058c8.563 1.452 15.003 8.814 15.003 17.681 0 4.962-2.016 9.452-5.274 12.697l-61.441 61.441 164.864 164.864c3.269 3.247 5.292 7.745 5.292 12.715s-2.023 9.468-5.291 12.714l-113.665 113.665c-3.247 3.269-7.745 5.292-12.715 5.292s-9.468-2.023-12.714-5.291l-164.524-164.865-61.44 61.44c-3.245 3.259-7.736 5.275-12.698 5.275-8.867 0-16.229-6.44-17.666-14.897zM971.435 624.128l52.565 315.051c0.152 0.878 0.239 1.888 0.239 2.919 0 4.919-1.982 9.374-5.19 12.613l0.001-0.001c-3.296 3.419-7.916 5.543-13.032 5.543-1.064 0-2.106-0.092-3.119-0.268l-314.089-53.403c-8.563-1.452-15.003-8.814-15.003-17.681 0-4.962 2.016-9.452 5.274-12.697l61.441-61.441-164.864-165.035c-3.269-3.247-5.292-7.745-5.292-12.715s2.023-9.468 5.291-12.714l113.665-113.665c3.247-3.269 7.745-5.292 12.715-5.292s9.468 2.023 12.714 5.291l165.036 165.036 61.44-61.44c3.245-3.259 7.736-5.275 12.698-5.275 8.867 0 16.229 6.44 17.666 14.897z" />
</font>
</defs>
</svg>
